Anonymous, доброй ночи, присоединяйтесь к нам в Telegram!, здесь всегда актуальный адрес сайта, оперативная поддержка и многое другое!

>

5.6

iTunes

7.4

MVO

5.7

MVO

1

7.7

1 сезон

6.8

iTunes

7.3

1 сезон

13

6.7

1 сезон

8.3

RePack

30

ULTIMATE

pack

9.9

Лицензия

ВАЖНО

ИГРА 18+

pack

7.3

RePack

MK11

7.7

RePack

jed

7.8

RePack

fifa19

8.5

RePack

RDR2

RePack

NEED FOR SPEED™ PAYBACK

4 сезон

9 сезон

Бесстыжие 9 сезон

Все сериалы

все сериалы на PB.wtf

RePack

FAR CRY 5

Anonymous, доброй ночи, мы катастрофически не успеваем собрать деньги на оплату серверов, помогите нам пожалуйста 5,10,15р., для нас важна любая помощь . В качестве благодарности мы отключим Вам всю рекламу на сайте (укажите свой ник в строку Ваше имя)!

×
  
Magnet ссылка

Инсталайф / Сезон: 1 / Серии: 1-8 из 8 (Юлия Трофимова) [2021, Комедия, драма, WEBRip 720p] pb.wtf

Инсталайф через торрент pb.wtf

Раздают: 1 [ 0 KB/s ]
Размер: 1.92 GB | Добавлен: 3 мес. 24 д. назад | Торрент скачан:28 раз
Смотреть онлайн Инсталайф | Скачать    Ребята, помогите собрать деньги на оплату серверов!!!

15-06-2021 16:57 Инсталайф Скачать торрент  

Инсталайф
Год выпуска: 2021
Страна: Россия
Студия: ВЕГА Фильм, ООО «Премьер»
Жанр: Комедия, драма
Продолжительность: ~ 00:11:00 серия
Перевод: Не требуется
Субтитры: отсутствуют

Режиссер: Юлия Трофимова



В ролях: Лукерья Ильяшенко, Ирина Носова (II), Анастасия Уколова, Анна Котова-Дерябина, Юлия Серина, Данила Якушев, Максим Лагашкин, Екатерина Стулова, Антон Кукушкин, Павел Рассомахин, Алина Недобитко

Описание: История о пяти московских подругах: Оле − пробивной девушке из провинции; Ире − страдающей после разрыва отношений с очередным парнем; Веронике − доброй и веселой девушке, борющейся всю жизнь с лишним весом; Алене − молодой маме, любящей сына, но очень скучающей по работе; Кате − влюбленной в женатого мужчину. По сюжету, девушки наблюдают, что происходит в жизни подруг через Инстаграм, и начинают подстраивать свою жизнь под то, что видят в ленте.

Качество: WEBRip 720p
Формат: MKV

Видео: MPEG-4 AVC, ~ 3000 Кбит/с, 1280x528
Аудио: 48.0 kHz, AC3 Dolby Digital, 2/0 (L,R) ch, ~ 192 kbps
скриншот  скриншот  скриншот  скриншот  

Общее
Уникальный идентификатор : 112208109428006424070068390229571709207 (0x546A7EEC6C9B837F47D4CCA89012A917)
Полное имя : D:Instalajf.2021.WEB-DL.720p1.Instalajf.2021.WEB-DL.720p.mkv
Формат : Matroska
Версия формата : Version 4
Размер файла : 230 Мбайт
Продолжительность : 10 м. 25 с.
Режим общего битрейта : Переменный
Общий поток : 3 080 Кбит/сек
Название фильма : 01.Instalajf.2021.WEB-DL.720p
Дата кодирования : UTC 2021-06-15 15:46:58
Программа кодирования : mkvmerge v58.0.0 ('Supper's Ready') 64-bit
Библиотека кодирования : libebml v1.4.2 + libmatroska v1.6.4
Attachments : poster.jpg

Видео
Идентификатор : 1
Формат : AVC
Формат/Информация : Advanced Video Codec
Профиль формата : High@L3.1
Настройки формата : CABAC / 1 Ref Frames
Параметр CABAC формата : Да
Параметр RefFrames формата : 1 кадр
Параметр GOP формата : M=1, N=50
Идентификатор кодека : V_MPEG4/ISO/AVC
Продолжительность : 10 м. 25 с.
Вид битрейта : Переменный
Битрейт : 2 885 Кбит/сек
Максимальный битрейт : 3 000 Кбит/сек
Ширина : 1 280 пикселей
Высота : 528 пикселей
Соотношение сторон : 2,40:1
Соотношение сторон в оригинале : 2,40:1
Режим частоты кадров : Постоянный
Частота кадров : 25,000 кадров/сек
Цветовое пространство : YUV
Субдискретизация насыщенности : 4:2:0
Битовая глубина : 8 бит
Тип развёртки : Прогрессивная
Бит/(Пиксели*Кадры) : 0.171
Размер потока : 215 Мбайт (94%)
Default : Да
Forced : Нет

Аудио
Идентификатор : 2
Формат : AC-3
Формат/Информация : Audio Coding 3
Коммерческое название : Dolby Digital
Идентификатор кодека : A_AC3
Продолжительность : 10 м. 25 с.
Вид битрейта : Постоянный
Битрейт : 192 Кбит/сек
Каналы : 2 канала
Channel layout : L R
Частота : 48,0 КГц
Частота кадров : 31,250 кадров/сек (1536 SPF)
Метод сжатия : С потерями
Размер потока : 14,3 Мбайт (6%)
Service kind : Complete Main
Default : Да
Forced : Нет

Когда раздача ведётся путём добавления новых серий, при каждом добавлении создётся новый торрент. Чтобы начать докачку новой серии, пользователям необходимо сделать следующее:
(1) остановить скачивание,
(2) удалить старый торрент у себя из клиента (старые серии удалять не надо),
(3) скачать новый торрент и запустить его у себя в клиенте вместо старого, при этом указать клиенту путь в старую папку, куда и должно происходить скачивание новых серий.
Ваш клиент при этом должен произвести хеширование (проверку) старой папки (если не производит сам - помогите ему сделать это), и будет докачивать только те серии, которых у вас ещё нет. Старые серии при этом не удаляются, а продолжают раздаваться!
Eсли вы уже удалили старые серии, то предотвратить повторную закачку старых серий можно, отжав галочку в соответсвующих местах при запуске нового торрента. По возможности, желательно не удалять старые серии как можно дольше, чтобы релизёр не столько продолжал раздавать старые серии, а смог сконцентрироваться на новых.

pb.wtf



Скачать Инсталайф через торрент https://d.radikal.ru/d32/2106/1f/624227df0290.jpg Скачать, смотреть онлайн Инсталайф бесплантно в хорошем качестве Описание: История о пяти московских подругах: Оле − пробивной девушке из провинции; Ире − страдающей после разрыва отношений с очередным ... 10 10 3
Торрент: Зарегистрирован [2021-06-21 16:30] · скачан: 28 раз
Статус: √ проверено
Размер: 1.92 GB
Как cкачать? Как скачать Инсталайф через торрент | UTorrent

% Раздел Тема Автор DL S | L
TNT serials [ 1.11 GB ] Инсталайф / Сезон: 1 / Серии: 1-8 из 8 [2021 WEBRip] bober100 Скачать
3 | 0
TNT serials [ 1.11 GB ] Инсталайф / Сезон: 1 / Серии: 1-8 из 8 [2021 WEBRip-AVC] bober100 Скачать
1 | 0
TNT serials [ 2.83 GB ] Инсталайф / Сезон: 1 / Серии: 1-8 из 8 [2021 WEBRip 1080p] bober100 Скачать
1 | 0

28-11-2019 20:33  

Отключить всю рекламу на сайте

    Дорогой пользователь! Огромная просьба, поблагодарите релизера, оцените раздачу и оставьте свои комментарий, если Вы скачали Инсталайф через торрент бесплатно!
    Комментировать посты могут только пользователи прошедшие не сложную регистрацию
    Показать сообщения:    

    Инсталайф через торрент
    Скачать бесплатно Инсталайф
    Инсталайф скачать торрент
    Инсталайф смотреть онлайн
    Cкачать фильм Инсталайф бесплатно
    Инсталайф скачать торрент в хорошем качестве
    Инсталайф смотреть онлайн бесплатно в хорошем качестве


    Вы не можете начинать темы
    Вы не можете отвечать на сообщения
    Вы не можете редактировать свои сообщения
    Вы не можете удалять свои сообщения
    Вы не можете голосовать в опросах
    Вы не можете прикреплять файлы к сообщениям
    Вы можете скачивать файлы