Anonymous, добрый вечер, присоединяйтесь к нам в Telegram!, здесь всегда актуальный адрес сайта, оперативная поддержка и многое другое!

>

5.6

iTunes

7.4

MVO

5.7

MVO

1

7.7

1 сезон

6.8

iTunes

7.3

1 сезон

13

6.7

1 сезон

8.3

RePack

30

ULTIMATE

pack

9.9

Лицензия

ВАЖНО

ИГРА 18+

pack

7.3

RePack

MK11

7.7

RePack

jed

7.8

RePack

fifa19

8.5

RePack

RDR2

RePack

NEED FOR SPEED™ PAYBACK

4 сезон

9 сезон

Бесстыжие 9 сезон

Все сериалы

все сериалы на PB.wtf

RePack

FAR CRY 5

Anonymous, добрый вечер, мы катастрофически не успеваем собрать деньги на оплату серверов, помогите нам пожалуйста 5,10,15р., для нас важна любая помощь . В качестве благодарности мы отключим Вам всю рекламу на сайте (укажите свой ник в строку Ваше имя)!

×
  
Magnet ссылка

Инсталайф / Сезон: 1 / Серии: 1-8 из 8 (Юлия Трофимова) [2021, Комедия, драма, WEBRip-AVC] pb.wtf

Инсталайф через торрент pb.wtf

Размер: 1.11 GB | Добавлен: 3 мес. 23 д. назад | Торрент скачан:30 раз
Смотреть онлайн Инсталайф | Скачать    Ребята, помогите собрать деньги на оплату серверов!!!

15-06-2021 20:49 Инсталайф Скачать торрент  

Инсталайф
Год выпуска: 2021
Страна: Россия
Студия: ВЕГА Фильм, ООО «Премьер»
Жанр: Комедия, драма
Продолжительность: ~ 00:11:00 серия
Перевод: Не требуется
Субтитры: отсутствуют

Режиссер: Юлия Трофимова



В ролях: Лукерья Ильяшенко, Ирина Носова (II), Анастасия Уколова, Анна Котова-Дерябина, Юлия Серина, Данила Якушев, Максим Лагашкин, Екатерина Стулова, Антон Кукушкин, Павел Рассомахин, Алина Недобитко

Описание: История о пяти московских подругах: Оле − пробивной девушке из провинции; Ире − страдающей после разрыва отношений с очередным парнем; Веронике − доброй и веселой девушке, борющейся всю жизнь с лишним весом; Алене − молодой маме, любящей сына, но очень скучающей по работе; Кате − влюбленной в женатого мужчину. По сюжету, девушки наблюдают, что происходит в жизни подруг через Инстаграм, и начинают подстраивать свою жизнь под то, что видят в ленте.

Качество: WEBRip-AVC
Формат: MKV

Видео: MPEG-4 AVC, ~ 1600 Кбит/с, 1024x432, 25 кадр/с
Аудио: 48.0 kHz, AC3 Dolby Digital, 2/0 (L,R) ch, ~ 192 kbps
скриншот  скриншот  скриншот  скриншот  скриншот  

General
Unique ID : 251991485081859501323182106679306946743 (0xBD93CB70797FAD6FA3CBE3CA209D08B7)
Complete name : F:\Инсталайф.(2021).WEBRip.(AVC).Files-x\01.Instalajf.(2021).WEBRip.(AVC).by.Серый1779.Files-x.mkv
Format : Matroska
Format version : Version 2
File size : 133 MiB
Duration : 10 min 25 s
Overall bit rate : 1 785 kb/s
Encoded date : UTC 2021-06-15 17:44:16
Writing application : mkvmerge v7.8.0 ('River Man') 32bit built on Apr 3 2015 12:11:22
Writing library : libebml v1.3.1 + libmatroska v1.4.2

Video
ID : 1
Format : AVC
Format/Info : Advanced Video Codec
Format profile : High@L4.1
Format settings : CABAC / 9 Ref Frames
Format settings, CABAC : Yes
Format settings, RefFrames : 9 frames
Codec ID : V_MPEG4/ISO/AVC
Duration : 10 min 25 s
Bit rate : 1 600 kb/s
Width : 1 024 pixels
Height : 432 pixels
Display aspect ratio : 2.40:1
Frame rate mode : Constant
Frame rate : 25.000 FPS
Color space : YUV
Chroma subsampling : 4:2:0
Bit depth : 8 bits
Scan type : Progressive
Bits/(Pixel*Frame) : 0.145
Stream size : 116 MiB (87%)
Writing library : x264 core 146 r2538 121396c
Encoding settings : cabac=1 / ref=9 / deblock=1:-2:-1 / analyse=0x3:0x133 / me=umh / subme=9 / psy=1 / psy_rd=1.00:0.15 / mixed_ref=1 / me_range=32 / chroma_me=1 / trellis=2 / 8x8dct=1 / cqm=0 / deadzone=21,11 / fast_pskip=0 / chroma_qp_offset=-3 / threads=18 / lookahead_threads=3 / sliced_threads=0 / nr=0 / decimate=1 / interlaced=0 / bluray_compat=0 / constrained_intra=0 / bframes=9 / b_pyramid=2 / b_adapt=2 / b_bias=0 / direct=1 / weightb=1 / open_gop=0 / weightp=2 / keyint=250 / keyint_min=25 / scenecut=40 / intra_refresh=0 / rc=2pass / mbtree=0 / bitrate=1600 / ratetol=1.0 / qcomp=0.60 / qpmin=0 / qpmax=69 / qpstep=4 / cplxblur=20.0 / qblur=0.5 / ip_ratio=1.40 / pb_ratio=1.30 / aq=2:1.00
Default : Yes
Forced : No
Color range : Limited
Color primaries : BT.709
Transfer characteristics : BT.709
Matrix coefficients : BT.709

Audio
ID : 2
Format : AC-3
Format/Info : Audio Coding 3
Format settings, Endianness : Big
Codec ID : A_AC3
Duration : 10 min 25 s
Bit rate mode : Constant
Bit rate : 192 kb/s
Channel(s) : 2 channels
Channel positions : Front: L R
Sampling rate : 48.0 kHz
Frame rate : 31.250 FPS (1536 SPF)
Bit depth : 16 bits
Compression mode : Lossy
Stream size : 14.3 MiB (11%)
Service kind : Complete Main
Default : Yes
Forced : No

Когда раздача ведётся путём добавления новых серий, при каждом добавлении создётся новый торрент. Чтобы начать докачку новой серии, пользователям необходимо сделать следующее:
(1) остановить скачивание,
(2) удалить старый торрент у себя из клиента (старые серии удалять не надо),
(3) скачать новый торрент и запустить его у себя в клиенте вместо старого, при этом указать клиенту путь в старую папку, куда и должно происходить скачивание новых серий.
Ваш клиент при этом должен произвести хеширование (проверку) старой папки (если не производит сам - помогите ему сделать это), и будет докачивать только те серии, которых у вас ещё нет. Старые серии при этом не удаляются, а продолжают раздаваться!
Eсли вы уже удалили старые серии, то предотвратить повторную закачку старых серий можно, отжав галочку в соответсвующих местах при запуске нового торрента. По возможности, желательно не удалять старые серии как можно дольше, чтобы релизёр не столько продолжал раздавать старые серии, а смог сконцентрироваться на новых.

pb.wtf



Скачать Инсталайф через торрент https://d.radikal.ru/d32/2106/1f/624227df0290.jpg Скачать, смотреть онлайн Инсталайф бесплантно в хорошем качестве Описание: История о пяти московских подругах: Оле − пробивной девушке из провинции; Ире − страдающей после разрыва отношений с очередным ... 10 10 6
Торрент: Зарегистрирован [2021-06-22 03:09] · скачан: 30 раз
Статус: √ проверено
Размер: 1.11 GB
Как cкачать? Как скачать Инсталайф через торрент | UTorrent

% Раздел Тема Автор DL S | L
TNT serials [ 1.11 GB ] Инсталайф / Сезон: 1 / Серии: 1-8 из 8 [2021 WEBRip] bober100 Скачать
2 | 0
TNT serials [ 1.92 GB ] Инсталайф / Сезон: 1 / Серии: 1-8 из 8 [2021 WEBRip 720p] bober100 Скачать
2 | 0
TNT serials [ 2.83 GB ] Инсталайф / Сезон: 1 / Серии: 1-8 из 8 [2021 WEBRip 1080p] bober100 Скачать
2 | 0

28-11-2019 20:33  

Отключить всю рекламу на сайте

    Дорогой пользователь! Огромная просьба, поблагодарите релизера, оцените раздачу и оставьте свои комментарий, если Вы скачали Инсталайф через торрент бесплатно!
    Комментировать посты могут только пользователи прошедшие не сложную регистрацию
    Показать сообщения:    

    Инсталайф через торрент
    Скачать бесплатно Инсталайф
    Инсталайф скачать торрент
    Инсталайф смотреть онлайн
    Cкачать фильм Инсталайф бесплатно
    Инсталайф скачать торрент в хорошем качестве
    Инсталайф смотреть онлайн бесплатно в хорошем качестве


    Вы не можете начинать темы
    Вы не можете отвечать на сообщения
    Вы не можете редактировать свои сообщения
    Вы не можете удалять свои сообщения
    Вы не можете голосовать в опросах
    Вы не можете прикреплять файлы к сообщениям
    Вы можете скачивать файлы