Anonymous, добрый вечер, присоединяйтесь к нам в Telegram!, здесь всегда актуальный адрес сайта, оперативная поддержка и многое другое!

>

5.6

iTunes

7.4

MVO

5.7

MVO

1

7.7

1 сезон

6.8

iTunes

7.3

1 сезон

13

6.7

1 сезон

8.3

RePack

30

ULTIMATE

pack

9.9

Лицензия

ВАЖНО

ИГРА 18+

pack

7.3

RePack

MK11

7.7

RePack

jed

7.8

RePack

fifa19

8.5

RePack

RDR2

RePack

NEED FOR SPEED™ PAYBACK

4 сезон

9 сезон

Бесстыжие 9 сезон

Все сериалы

все сериалы на PB.wtf

RePack

FAR CRY 5

Anonymous, добрый вечер, мы катастрофически не успеваем собрать деньги на оплату серверов, помогите нам пожалуйста 5,10,15р., для нас важна любая помощь . В качестве благодарности мы отключим Вам всю рекламу на сайте (укажите свой ник в строку Ваше имя)!

×
  
Magnet ссылка

Инсталайф / Сезон: 1 / Серии: 1-8 из 8 (Юлия Трофимова) [2021, Комедия, драма, WEBRip] pb.wtf

Инсталайф через торрент pb.wtf

Раздают: 2 [ 0 KB/s ]
Размер: 1.11 GB | Добавлен: 3 мес. 17 д. назад | Торрент скачан:43 раза
Смотреть онлайн Инсталайф | Скачать    Ребята, помогите собрать деньги на оплату серверов!!!

15-06-2021 20:52 Инсталайф Скачать торрент  

Инсталайф
Год выпуска: 2021
Страна: Россия
Студия: ВЕГА Фильм, ООО «Премьер»
Жанр: Комедия, драма
Продолжительность: ~ 00:11:00 серия
Перевод: Не требуется
Субтитры: отсутствуют

Режиссер: Юлия Трофимова



В ролях: Лукерья Ильяшенко, Ирина Носова (II), Анастасия Уколова, Анна Котова-Дерябина, Юлия Серина, Данила Якушев, Максим Лагашкин, Екатерина Стулова, Антон Кукушкин, Павел Рассомахин, Алина Недобитко

Описание: История о пяти московских подругах: Оле − пробивной девушке из провинции; Ире − страдающей после разрыва отношений с очередным парнем; Веронике − доброй и веселой девушке, борющейся всю жизнь с лишним весом; Алене − молодой маме, любящей сына, но очень скучающей по работе; Кате − влюбленной в женатого мужчину. По сюжету, девушки наблюдают, что происходит в жизни подруг через Инстаграм, и начинают подстраивать свою жизнь под то, что видят в ленте.

Качество: WEBRip
Формат: AVI

Видео: XviD, ~ 1600 Кбит/с, 720х304, 25 кадр/с
Аудио: 48.0 kHz, AC3 Dolby Digital, 2/0 (L,R) ch, ~ 192 kbps
скриншот  скриншот  скриншот  скриншот  скриншот  

General
Complete name : H:\fiiles x\Инсталайф.2021.WEB-DLRip.Files-x\01. Инсталайф.2021.WEB-DLRip.Files-x.avi
Format : AVI
Format/Info : Audio Video Interleave
File size : 133 MiB
Duration : 10mn 25s
Overall bit rate : 1 782 Kbps
Writing application : VirtualDubMod 1.5.10.3 | www.virtualdub-fr.org || (build 2550/release)
Writing library : VirtualDubMod build 2550/release

Video
ID : 0
Format : MPEG-4 Visual
Format profile : Advanced Simple@L5
Format settings, BVOP : 1
Format settings, QPel : No
Format settings, GMC : No warppoints
Format settings, Matrix : Custom
Codec ID : XVID
Codec ID/Hint : XviD
Duration : 10mn 25s
Bit rate : 1 580 Kbps
Width : 720 pixels
Height : 304 pixels
Display aspect ratio : 2.35:1
Frame rate : 25.000 fps
Color space : YUV
Chroma subsampling : 4:2:0
Bit depth : 8 bits
Scan type : Progressive
Compression mode : Lossy
Bits/(Pixel*Frame) : 0.289
Stream size : 118 MiB (89%)
Writing library : XviD 73

Audio
ID : 1
Format : AC-3
Format/Info : Audio Coding 3
Mode extension : CM (complete main)
Codec ID : 2000
Duration : 10mn 25s
Bit rate mode : Constant
Bit rate : 192 Kbps
Channel(s) : 2 channels
Channel positions : Front: L R
Sampling rate : 48.0 KHz
Bit depth : 16 bits
Compression mode : Lossy
Stream size : 14.3 MiB (11%)
Alignment : Split accross interleaves
Interleave, duration : 40 ms (1.00 video frame)
Interleave, preload duration : 500 ms

Когда раздача ведётся путём добавления новых серий, при каждом добавлении создётся новый торрент. Чтобы начать докачку новой серии, пользователям необходимо сделать следующее:
(1) остановить скачивание,
(2) удалить старый торрент у себя из клиента (старые серии удалять не надо),
(3) скачать новый торрент и запустить его у себя в клиенте вместо старого, при этом указать клиенту путь в старую папку, куда и должно происходить скачивание новых серий.
Ваш клиент при этом должен произвести хеширование (проверку) старой папки (если не производит сам - помогите ему сделать это), и будет докачивать только те серии, которых у вас ещё нет. Старые серии при этом не удаляются, а продолжают раздаваться!
Eсли вы уже удалили старые серии, то предотвратить повторную закачку старых серий можно, отжав галочку в соответсвующих местах при запуске нового торрента. По возможности, желательно не удалять старые серии как можно дольше, чтобы релизёр не столько продолжал раздавать старые серии, а смог сконцентрироваться на новых.

pb.wtf



Скачать Инсталайф через торрент https://d.radikal.ru/d32/2106/1f/624227df0290.jpg Скачать, смотреть онлайн Инсталайф бесплантно в хорошем качестве Описание: История о пяти московских подругах: Оле − пробивной девушке из провинции; Ире − страдающей после разрыва отношений с очередным ... 10 10 4
Торрент: Зарегистрирован [2021-06-28 15:32] · скачан: 43 раз
Статус: √ проверено
Размер: 1.11 GB
Как cкачать? Как скачать Инсталайф через торрент | UTorrent

% Раздел Тема Автор DL S | L
TNT serials [ 1.11 GB ] Инсталайф / Сезон: 1 / Серии: 1-8 из 8 [2021 WEBRip-AVC] bober100 Скачать
1 | 0
TNT serials [ 1.92 GB ] Инсталайф / Сезон: 1 / Серии: 1-8 из 8 [2021 WEBRip 720p] bober100 Скачать
2 | 0
TNT serials [ 2.83 GB ] Инсталайф / Сезон: 1 / Серии: 1-8 из 8 [2021 WEBRip 1080p] bober100 Скачать
1 | 0

28-11-2019 20:33  

Отключить всю рекламу на сайте

    Дорогой пользователь! Огромная просьба, поблагодарите релизера, оцените раздачу и оставьте свои комментарий, если Вы скачали Инсталайф через торрент бесплатно!
    Комментировать посты могут только пользователи прошедшие не сложную регистрацию
    Показать сообщения:    

    Инсталайф через торрент
    Скачать бесплатно Инсталайф
    Инсталайф скачать торрент
    Инсталайф смотреть онлайн
    Cкачать фильм Инсталайф бесплатно
    Инсталайф скачать торрент в хорошем качестве
    Инсталайф смотреть онлайн бесплатно в хорошем качестве


    Вы не можете начинать темы
    Вы не можете отвечать на сообщения
    Вы не можете редактировать свои сообщения
    Вы не можете удалять свои сообщения
    Вы не можете голосовать в опросах
    Вы не можете прикреплять файлы к сообщениям
    Вы можете скачивать файлы