Anonymous, добрый день, присоединяйтесь к нам в Telegram!, здесь всегда актуальный адрес сайта, оперативная поддержка и многое другое!

>

5.5

iTunes

7.4

iTunes

7.9

iTunes

1

7.7

1 сезон

6.8

iTunes

7.3

1 сезон

13

6.7

1 сезон

8.3

RePack

30

ULTIMATE

pack

9.9

Лицензия

ВАЖНО

ИГРА 18+

pack

7.3

RePack

MK11

7.7

RePack

jed

7.8

RePack

fifa19

8.5

RePack

RDR2

RePack

NEED FOR SPEED™ PAYBACK

4 сезон

9 сезон

Бесстыжие 9 сезон

Все сериалы

все сериалы на PB.wtf

RePack

FAR CRY 5

Anonymous, добрый день, мы катастрофически не успеваем собрать деньги на оплату серверов, помогите нам пожалуйста 5,10,15р., для нас важна любая помощь . В качестве благодарности мы отключим Вам всю рекламу на сайте (укажите свой ник в строку Ваше имя)!

×
  
Magnet ссылка

Света с того света / Сезон: 2 / Серии: 1-19 из 19 (Константин Колесов) [2021, Комедия, WEBRip 1080p] pb.wtf

Света с того света через торрент pb.wtf

Раздают: 1 [ 0 KB/s ]
Размер: 14.77 GB | Добавлен: 3 мес. 22 д. назад | Торрент скачан:49 раз
Смотреть онлайн Света с того света | Скачать    Ребята, помогите собрать деньги на оплату серверов!!!

15-06-2021 21:03 Света с того света Скачать торрент  

Света с того света
Год выпуска: 2021
Страна: Россия
Студия: Comedy Club Production
Жанр: Комедия
Продолжительность: ~ 00:25:00
Перевод: Не требуется
Субтитры: отсутствуют

Режиссер: Константин Колесов

rating

В ролях: Мария Машкова, Анна Котова-Дерябина, Кирилл Каганович, Александр Ратников, Борис Каморзин, Евгения Дмитриева, Виктор Супрун, Евдокия Германова, Илья Шидловский, Константин Белошапка, Роман Шаляпин, Наталья Бардо, Владимир Чуприков, Артур Мухамадияров, Карина Шишлянникова, Алина Иманбаева, Анастасия Макарова, Юлия Писаренко, Вилен Бабичев, Артём Лысков, Максим Аверьянов, Александр Цуркан, Дарья Фурман, Алина Забродина, Михаил Кремер, Александра Макарская, Стас Румянцев, Анна Винская, Олеся Кыдык, Михаил Коновалов, Александр Силаев, Денис Оншин, Захар Розин, Марина Дианова, Антон Морозов, Мария Ремер, Дмитрий Корепин

Описание: В новом сезоне «Света с того света» превращается в полномасштабную романтическую комедию, ведь главную героиню настигает внезапная любовь – буквально из соседнего окна, за которым она следит с помощью телескопа. Света пускается в погоню за своим счастьем. Её ждёт куча преград: от странных проблем клиентов до маминой игуаны. Но добрая и чуткая Света не может никого бросить в беде: ей нужно помочь всем и сразу, не забыв про себя.

Качество: WEBRip 1080p
Формат: MKV

Видео: MPEG-4 AVC, ~ 4500 Кбит/с, 1920x1072, 25 кадр/с
Аудио: 48.0 kHz, AC3 Dolby Digital, 2/0 (L,R) ch, ~ 192 kbps
скриншот  скриншот  скриншот  скриншот  

Общее
Уникальный идентификатор : 119861730987840478711758087172050084296 (0x5A2C8799BC1C1B2B8F868E470C4F61C8)
Полное имя : D:Sveta.s.togo.sveta.S02.2021.WEB-DL.1080p1.Sveta.s.togo.sveta.S02.2021.WEB-DL.1080p.mkv
Формат : Matroska
Версия формата : Version 4
Размер файла : 809 Мбайт
Продолжительность : 24 м. 39 с.
Режим общего битрейта : Переменный
Общий поток : 4 585 Кбит/сек
Название фильма : 01.Sveta.s.togo.sveta.S02.2021.WEB-DL.1080p
Дата кодирования : UTC 2021-06-15 17:31:08
Программа кодирования : mkvmerge v56.1.0 ('My Friend') 64-bit
Библиотека кодирования : libebml v1.4.2 + libmatroska v1.6.4
Attachments : poster.jpg

Видео
Идентификатор : 1
Формат : AVC
Формат/Информация : Advanced Video Codec
Профиль формата : High@L4
Настройки формата : CABAC / 1 Ref Frames
Параметр CABAC формата : Да
Параметр RefFrames формата : 1 кадр
Параметр GOP формата : M=1, N=50
Идентификатор кодека : V_MPEG4/ISO/AVC
Продолжительность : 24 м. 39 с.
Вид битрейта : Переменный
Битрейт : 4 391 Кбит/сек
Максимальный битрейт : 4 500 Кбит/сек
Ширина : 1 920 пикселей
Высота : 1 072 пикселя
Соотношение сторон : 16:9
Режим частоты кадров : Постоянный
Частота кадров : 25,000 кадров/сек
Цветовое пространство : YUV
Субдискретизация насыщенности : 4:2:0
Битовая глубина : 8 бит
Тип развёртки : Прогрессивная
Бит/(Пиксели*Кадры) : 0.085
Размер потока : 774 Мбайт (96%)
Default : Да
Forced : Нет

Аудио
Идентификатор : 2
Формат : AC-3
Формат/Информация : Audio Coding 3
Коммерческое название : Dolby Digital
Идентификатор кодека : A_AC3
Продолжительность : 24 м. 39 с.
Вид битрейта : Постоянный
Битрейт : 192 Кбит/сек
Каналы : 2 канала
Channel layout : L R
Частота : 48,0 КГц
Частота кадров : 31,250 кадров/сек (1536 SPF)
Метод сжатия : С потерями
Размер потока : 33,9 Мбайт (4%)
Service kind : Complete Main
Default : Да
Forced : Нет

Когда раздача ведётся путём добавления новых серий, при каждом добавлении создётся новый торрент. Чтобы начать докачку новой серии, пользователям необходимо сделать следующее:
(1) остановить скачивание,
(2) удалить старый торрент у себя из клиента (старые серии удалять не надо),
(3) скачать новый торрент и запустить его у себя в клиенте вместо старого, при этом указать клиенту путь в старую папку, куда и должно происходить скачивание новых серий.
Ваш клиент при этом должен произвести хеширование (проверку) старой папки (если не производит сам - помогите ему сделать это), и будет докачивать только те серии, которых у вас ещё нет. Старые серии при этом не удаляются, а продолжают раздаваться!
Eсли вы уже удалили старые серии, то предотвратить повторную закачку старых серий можно, отжав галочку в соответсвующих местах при запуске нового торрента. По возможности, желательно не удалять старые серии как можно дольше, чтобы релизёр не столько продолжал раздавать старые серии, а смог сконцентрироваться на новых.

pb.wtf



Скачать Света с того света через торрент https://d.radikal.ru/d22/2106/84/0c97e4887a94.jpg Скачать, смотреть онлайн Света с того света бесплантно в хорошем качестве Описание: В новом сезоне «Света с того света» превращается в полномасштабную романтическую комедию, ведь главную героиню настигает ... 9.7 10 6
Торрент: Зарегистрирован [2021-07-02 03:53] · скачан: 49 раз
Статус: √ проверено
Размер: 14.77 GB
Как cкачать? Как скачать Света с того света через торрент | UTorrent

% Раздел Тема Автор DL S | L
TNT serials [ 10.06 GB ] Света с того света / Сезон: 2 / Серии: 1-19 из 19 [2021 WEBRip 720p] bober100 Скачать
2 | 0

28-11-2019 20:33  

Отключить всю рекламу на сайте

    Дорогой пользователь! Огромная просьба, поблагодарите релизера, оцените раздачу и оставьте свои комментарий, если Вы скачали Света с того света через торрент бесплатно!
    Комментировать посты могут только пользователи прошедшие не сложную регистрацию
    Показать сообщения:    

    Света с того света через торрент
    Скачать бесплатно Света с того света
    Света с того света скачать торрент
    Света с того света смотреть онлайн
    Cкачать фильм Света с того света бесплатно
    Света с того света скачать торрент в хорошем качестве
    Света с того света смотреть онлайн бесплатно в хорошем качестве


    Вы не можете начинать темы
    Вы не можете отвечать на сообщения
    Вы не можете редактировать свои сообщения
    Вы не можете удалять свои сообщения
    Вы не можете голосовать в опросах
    Вы не можете прикреплять файлы к сообщениям
    Вы можете скачивать файлы