Всегда рабочее зеркало просто перед .vidak.icu напиши любое слово или цифру, Пример http://u99.vidak.icu

>

7.4

iTunes

7.4

2 сезон

6.6

iTunes

1

7.4

2 сезон

7.2

iTunes

6.0

MVO

13

6.1

iTunes

8.3

Пиратка

30

ULTIMATE

pack

9.9

Лицензия

ВАЖНО

ИГРА 18+

pack

7.3

RePack

MK11

7.7

RePack

jed

7.8

RePack

fifa19

8.5

RePack

RDR2

RePack

NEED FOR SPEED™ PAYBACK

1 сезон

9 сезон

Бесстыжие 9 сезон

Все сериалы

все сериалы на PB.wtf

RePack

FAR CRY 5

Anonymous, доброй ночи, мы катастрофически не успеваем собрать деньги на оплату серверов, помогите нам пожалуйста 5,10,15р., для нас важна любая помощь . В качестве благодарности мы отключим Вам всю рекламу на сайте (укажите свой ник в строку Ваше имя)!

×
  
Magnet ссылка

Никто / Nobody (Илья Найшуллер) [2021, Боевик, триллер, криминал, UHD BDRemux 2160p] DUB [iTunes] +2xAVO [Есарев, Яроцкий] +MVO [HDRezka Studio] pb.wtf

Никто через торрент pb.wtf

Раздают: 1 [ 89 KB/s ]
Размер: 42.37 GB | Добавлен: 7 мес. назад | Торрент скачан:153 раза
Смотреть онлайн Никто | Скачать    Ребята, помогите собрать деньги на оплату серверов!!!

18-06-2021 04:02 Никто Скачать торрент  

Никто | Nobody
Год выпуска: 2021
Страна: США
Выпущено: 87North, Eighty Two Films, Odenkirk Provissiero Entertainment
Жанр: Боевик, триллер, криминал
Продолжительность: 01:31:41
Перевод:
#1: Дублированный | iTunes
#2: Профессиональный (многоголосый) | HDRezka Studio
#3: Авторский | Есарев
#4: Авторский | Яроцкий
Субтитры: Русские (Forced, 2 x full), английские

Режиссер: Илья Найшуллер

rating

В ролях: Боб Оденкерк, Конни Нильсен, Кристофер Ллойд, Пол Эссимбр, Хамберли Гонсалес, Жан-Поль Мано, Арая Менгеша, Гейдж Манро, Кристен Харрис, Эрик Атхавале, Александр Паль, Алексей Серебряков

Описание: Самый обычный и непримечательный человек, не имеющий никакого веса в обществе, случайно попадает под прицел наркобарона, спасая женщину от нападения бандитов. Когда после этого один из них оказывается в больнице, герой узнает, что это был брат крупного гангстера, и теперь его ждет месть.

Качество: UHD BDRemux 2160p
Формат: MKV

Видео: 3840x2160 at 23.976 fps, MPEG-H HEVC HDR Video, ~ 60800 kbps avg
Аудио #01: 48 kHz, AC3, 5.1, 384 Kbps | Дублированный | iTunes | RUS |
Аудио #02: 48 kHz, AC3, 5.1, 448 Kbps | Профессиональный многоголосый | HDRezka Studio (censored) | RUS |
Аудио #03: 48 kHz, AC3, 5.1, 448 Kbps | Профессиональный многоголосый | HDRezka Studio (uncensored) | RUS |
Аудио #04: 48 kHz, AC3, 5.1, 448 Kbps | Авторский | Есарев | RUS |
Аудио #05: 48 kHz, AC3, 5.1, 448 Kbps | Авторский | Яроцкий | RUS |
Аудио #06: 48 kHz, TrueHD, 7.1, 2697 Kbps | Оригинал | ENG |
Аудио #07: 48 kHz, AC3, 5.1, 448 Kbps | Оригинал | ENG |
скриншот  скриншот  скриншот  скриншот  скриншот  

General
Unique ID : 231065565008860927941178291483162389338 (0xADD59BEC73E5051BE667683194532B5A)
Complete name : F:VideoNobody.2021.BDREMUX.2160p.2160p.HDR.seleZen.mkv
Format : Matroska
Format version : Version 4
File size : 42.4 GiB
Duration : 1 h 31 min
Overall bit rate mode : Variable
Overall bit rate : 66.2 Mb/s
Movie name : Nobody 2021 from seleZen
Encoded date : UTC 2021-06-18 01:30:10
Writing application : mkvmerge v55.0.0 ('Waiting For Space') 64-bit
Writing library : libebml v1.4.2 + libmatroska v1.6.4

Video
ID : 1
Format : HEVC
Format/Info : High Efficiency Video Coding
Format profile : Main 10@L5.1@High
HDR format : SMPTE ST 2086, HDR10 compatible
Codec ID : V_MPEGH/ISO/HEVC
Duration : 1 h 31 min
Bit rate : 60.8 Mb/s
Width : 3 840 pixels
Height : 2 160 pixels
Display aspect ratio : 16:9
Frame rate mode : Constant
Frame rate : 23.976 (24000/1001) FPS
Color space : YUV
Chroma subsampling : 4:2:0 (Type 2)
Bit depth : 10 bits
Bits/(Pixel*Frame) : 0.306
Stream size : 38.9 GiB (92%)
Language : English
Default : Yes
Forced : No
Color range : Limited
Color primaries : BT.2020
Transfer characteristics : PQ
Matrix coefficients : BT.2020 non-constant
Mastering display color pri : Display P3
Mastering display luminance : min: 0.0001 cd/m2, max: 1000 cd/m2
Maximum Content Light Level : 959 cd/m2
Maximum Frame-Average Light : 338 cd/m2

Audio #1
ID : 2
Format : AC-3
Format/Info : Audio Coding 3
Commercial name : Dolby Digital
Codec ID : A_AC3
Duration : 1 h 31 min
Bit rate mode : Constant
Bit rate : 384 kb/s
Channel(s) : 6 channels
Channel layout : L R C LFE Ls Rs
Sampling rate : 48.0 kHz
Frame rate : 31.250 FPS (1536 SPF)
Compression mode : Lossy
Stream size : 252 MiB (1%)
Title : Dub [iTunes]
Language : Russian
Service kind : Complete Main
Default : Yes
Forced : Yes

Audio #2
ID : 3
Format : AC-3
Format/Info : Audio Coding 3
Commercial name : Dolby Digital
Codec ID : A_AC3
Duration : 1 h 31 min
Bit rate mode : Constant
Bit rate : 448 kb/s
Channel(s) : 6 channels
Channel layout : L R C LFE Ls Rs
Sampling rate : 48.0 kHz
Frame rate : 31.250 FPS (1536 SPF)
Compression mode : Lossy
Stream size : 294 MiB (1%)
Title : MVO [HDRezka Studio] - censored
Language : Russian
Service kind : Complete Main
Default : No
Forced : No

Audio #3
ID : 4
Format : AC-3
Format/Info : Audio Coding 3
Commercial name : Dolby Digital
Codec ID : A_AC3
Duration : 1 h 31 min
Bit rate mode : Constant
Bit rate : 448 kb/s
Channel(s) : 6 channels
Channel layout : L R C LFE Ls Rs
Sampling rate : 48.0 kHz
Frame rate : 31.250 FPS (1536 SPF)
Compression mode : Lossy
Stream size : 294 MiB (1%)
Title : MVO [HDRezka Studio] - uncensored
Language : Russian
Service kind : Complete Main
Default : No
Forced : No

Audio #4
ID : 5
Format : AC-3
Format/Info : Audio Coding 3
Commercial name : Dolby Digital
Codec ID : A_AC3
Duration : 1 h 31 min
Bit rate mode : Constant
Bit rate : 448 kb/s
Channel(s) : 6 channels
Channel layout : L R C LFE Ls Rs
Sampling rate : 48.0 kHz
Frame rate : 31.250 FPS (1536 SPF)
Compression mode : Lossy
Stream size : 294 MiB (1%)
Title : AVO [Yesarev] -uncensored
Language : Russian
Service kind : Complete Main
Default : No
Forced : No

Audio #5
ID : 6
Format : AC-3
Format/Info : Audio Coding 3
Commercial name : Dolby Digital
Codec ID : A_AC3
Duration : 1 h 31 min
Bit rate mode : Constant
Bit rate : 448 kb/s
Channel(s) : 6 channels
Channel layout : L R C LFE Ls Rs
Sampling rate : 48.0 kHz
Frame rate : 31.250 FPS (1536 SPF)
Compression mode : Lossy
Stream size : 294 MiB (1%)
Title : AVO [kyberpunk] - uncensored
Language : Russian
Service kind : Complete Main
Default : No
Forced : No

Audio #6
ID : 7
Format : MLP FBA 16-ch
Format/Info : Meridian Lossless Packing FBA with 16-channel presentation
Commercial name : Dolby TrueHD with Dolby Atmos
Codec ID : A_TRUEHD
Duration : 1 h 31 min
Bit rate mode : Variable
Bit rate : 2 697 kb/s
Maximum bit rate : 4 788 kb/s
Channel(s) : 8 channels
Channel layout : L R C LFE Ls Rs Lb Rb
Sampling rate : 48.0 kHz
Frame rate : 1 200.000 FPS (40 SPF)
Compression mode : Lossless
Stream size : 1.73 GiB (4%)
Title : Original
Language : English
Default : No
Forced : No
Number of dynamic objects : 11
Bed channel count : 1 channel
Bed channel configuration : LFE

Audio #7
ID : 8
Format : AC-3
Format/Info : Audio Coding 3
Commercial name : Dolby Digital
Codec ID : A_AC3
Duration : 1 h 31 min
Bit rate mode : Constant
Bit rate : 448 kb/s
Channel(s) : 6 channels
Channel layout : L R C LFE Ls Rs
Sampling rate : 48.0 kHz
Frame rate : 31.250 FPS (1536 SPF)
Compression mode : Lossy
Stream size : 294 MiB (1%)
Language : English
Service kind : Complete Main
Default : No
Forced : No

Text #1
ID : 9
Format : UTF-8
Codec ID : S_TEXT/UTF8
Codec ID/Info : UTF-8 Plain Text
Duration : 1 h 29 min
Bit rate : 3 b/s
Count of elements : 68
Stream size : 2.41 KiB (0%)
Title : Forced [HDRezka Studio]
Language : Russian
Default : Yes
Forced : Yes

Text #2
ID : 10
Format : UTF-8
Codec ID : S_TEXT/UTF8
Codec ID/Info : UTF-8 Plain Text
Duration : 1 h 29 min
Bit rate : 47 b/s
Count of elements : 660
Stream size : 31.3 KiB (0%)
Title : Full
Language : Russian
Default : No
Forced : No

Text #3
ID : 11
Format : UTF-8
Codec ID : S_TEXT/UTF8
Codec ID/Info : UTF-8 Plain Text
Duration : 1 h 28 min
Bit rate : 51 b/s
Count of elements : 805
Stream size : 33.3 KiB (0%)
Title : Full [FOCS (Uncensored)]
Language : Russian
Default : No
Forced : No

Text #4
ID : 12
Format : UTF-8
Codec ID : S_TEXT/UTF8
Codec ID/Info : UTF-8 Plain Text
Duration : 1 h 26 min
Bit rate : 28 b/s
Count of elements : 740
Stream size : 18.1 KiB (0%)
Title : Full
Language : English
Default : No
Forced : No

Text #5
ID : 13
Format : UTF-8
Codec ID : S_TEXT/UTF8
Codec ID/Info : UTF-8 Plain Text
Duration : 1 h 31 min
Bit rate : 48 b/s
Count of elements : 1329
Stream size : 32.4 KiB (0%)
Title : SDH
Language : English
Default : No
Forced : No

Menu
00:00:00.000 : en:Just a Nobody
00:02:04.249 : en:Suburban Life
00:09:01.540 : en:Paternal Inadequacy
00:15:02.693 : en:Covert Counseling
00:19:18.198 : en:Seeking Revenge
00:24:56.286 : en:One Door Opens
00:32:15.933 : en:Reminiscing the Past
00:35:37.468 : en:Yulian
00:40:01.065 : en:Enraged Sibling
00:43:43.203 : en:Visiting the Barber
00:47:29.221 : en:Vengeful Intrusion
00:50:56.636 : en:Trunk Awakening
00:54:46.783 : en:Trust Me
00:57:32.073 : en:Living Room Confession
01:04:16.686 : en:New Management
01:06:54.844 : en:Storming Obshak
01:08:59.802 : en:Came for the Show
01:13:20.646 : en:Chasing Revenge
01:15:26.355 : en:Last Stand
01:21:05.569 : en:Everybody Dies
01:24:06.499 : en:Not Much of an Answer
01:26:16.963 : en:End Credits

pb.wtf



Скачать Никто через торрент https://d.radikal.ru/d30/2106/6b/597ffaa6fd84.jpg Скачать, смотреть онлайн Никто бесплантно в хорошем качестве Описание: Самый обычный и непримечательный человек, не имеющий никакого веса в обществе, случайно попадает под прицел наркобарона, спасая ... 10 10 4
Торрент: Зарегистрирован [2021-06-18 04:02] · скачан: 153 раз
Статус: √ проверено
Размер: 42.37 GB
Как cкачать? Как скачать Никто через торрент | UTorrent

% Раздел Тема Автор DL S | L
Ultra HD (UHD: 2K, 4K, 8K) — видео сверхвысокой чёткости [ 10.54 GB ] Никто / Nobody [2021 UHD WEB-DL 2160p] MVO [HDRezka Studio] bober100 Скачать
5 | 0
Фильмы [HD 720p, 1080p] (Хороший звук DUB, MVO) [ 8.62 GB ] Никто / Nobody [2021 BDRip 720p] +2xAVO [Есарев Яроцкий] +MVO [HDRezka Studio] bober100 Скачать
40 | 0
Ultra HD (UHD: 2K, 4K, 8K) — видео сверхвысокой чёткости [ 45.04 GB ] Никто / Nobody [2021 UHD BDRemux 2160p ] +2xAVO [Есарев Яроцкий] +MVO [HDRezka Studio] bober100 Скачать
2 | 0
Фильмы [HD 720p, 1080p] (Хороший звук DUB, MVO) [ 24.47 GB ] Никто / Nobody [2021 BDRip 1080p] +2xAVO [Есарев Яроцкий] +MVO [HDRezka Studio] bober100 Скачать
3 | 0
Фильмы 2021 [DVDrip, WEB-DLRip, HDrip] (DUB, MVO) [ 1.46 GB ] Никто / Nobody [2021 BDRip] bober100 Скачать
5 | 0
Фильмы 2021 [DVDrip, WEB-DLRip, HDrip] (DUB, MVO) [ 1.46 GB ] Никто / Nobody [2021 HDRip] - Twi7ter Скачать
17 | 2
Фильмы (WEB-DL 720p, 1080p) [ 7.8 GB ] Никто / Nobody [2021 WEB-DL 1080p] [AMAZON Version] +2xAVO [Есарев Яроцкий] +MVO [HDRezka Studio] bober100 Скачать
5 | 0


Последний раз редактировалось: bober100 (2021-06-29 02:01), всего редактировалось 1 раз

28-11-2019 20:33  

Отключить всю рекламу на сайте

18-06-2021 08:01 Никто Скачать торрент  

Привет, а Рип будет кто ни будь делать?pb.wtf



01-07-2021 07:14 Никто Скачать торрент  

отличный фильм!pb.wtf



    Дорогой пользователь! Огромная просьба, поблагодарите релизера, оцените раздачу и оставьте свои комментарий, если Вы скачали Никто через торрент бесплатно!
    Комментировать посты могут только пользователи прошедшие не сложную регистрацию
    Показать сообщения:    

    Никто через торрент
    Скачать бесплатно Никто
    Никто скачать торрент
    Никто смотреть онлайн
    Cкачать фильм Никто бесплатно
    Никто скачать торрент в хорошем качестве
    Никто смотреть онлайн бесплатно в хорошем качестве


    Вы не можете начинать темы
    Вы не можете отвечать на сообщения
    Вы не можете редактировать свои сообщения
    Вы не можете удалять свои сообщения
    Вы не можете голосовать в опросах
    Вы не можете прикреплять файлы к сообщениям
    Вы можете скачивать файлы