Достать ножи: Стеклянная луковица

MVO

Добыча

Дубляж

Уэнсдэй

1 сезон

Тор

Дубляж

13 клиническая

1 сезон

Жестокая ночь

MVO

Одни из нас

1 сезон

Deluxe

pack

Рекомендуем

30

Пиратка

ВАЖНО

ВАЖНО

Ghostwire

Пиратка

jed

RePack

nioh2

RePack

RDR2

RePack

NEED FOR SPEED™ PAYBACK

RePack

скачать торрент

Кинопоиск HD

Острые козырьки 6 сезон

6 сезон

FAR CRY 6

RePack

скачать торрент

Лицензия

скачать торрент

MVO

1

1 сезон

скачать торрент

1 сезон

скачать торрент

Лицензия

  

Отцовство / Fatherhood (Пол Вайц) [2021, Драма, комедия, HDRip-AVC] Дубляж [Netflix] от ExKinoRay

Отцовство через торрент pb.wtf

Раздают: 1 [ 0 KB/s ]
Размер: 2.21 GB | Добавлен: 8 мес. назад | Торрент скачан:50 раз
Смотреть онлайн | Скачать | Поддержите нас   

18-06-2021 17:02 Отцовство Скачать торрент  


Отцовство / Fatherhood
Название: Отцовство
Оригинальное название: Fatherhood
Год выхода: 2021
Жанр: Драма, комедия
Режиссер: Пол Вайц
В ролях: Кевин Харт, Энтони Кэрриган, Элфри Вудард, Пол Райзер, Лил Рел Ховери, ДеВанда Уайз, Дебора Айоринде, Тениша Коллинз, Эллен Дэвид, Холли Дж. Франкель

Описание: Драма об отце, который остается один с новорожденной дочерью на руках после того, как его жена неожиданно умирает на следующий день после родов. «Отцовство» — американская драма с Кевином Хартом в роли отца-одиночки.



Страна: США
Студия: Bron Studios, Free Association, Higher Ground Productions, Sony Pictures Entertainment (SPE), Temple Hill Entertainment, TriStar Pictures
Продолжительность: 01:49:05
Перевод: Дублированный - Netflix



Информация о файле:
Кодек: AVC
Формат: MKV
Качество: HDRip-AVC
Видео: MPEG-4 AVC, 1024x428, 23.976 fps, 1995 kb/s
Аудио RU: AC3, 6 ch, 48 kHz, 448 kbps
Аудио EN: AC3, 6 ch, 48 kHz, 448 kbps
Субтитры: Русские (Forced, full), английские



x264 info: frame I:1414 Avg QP:15.08 size: 75724
x264 info: frame P:33671 Avg QP:17.75 size: 23394
x264 info: frame B:121850 Avg QP:18.68 size: 6046
General
Unique ID : 85657248895024833116232580454012015279 (0x4070FC6E6EE1CB5E193C00103F05D2AF)
Complete name : D:uTorrentРипы wolf1245Fatherhood.2021.Дубляж.Netflix.x264.HDRip-AVC.[wolf1245.ExKinoRay].mkv
Format : Matroska
Format version : Version 4
File size : 2.21 GiB
Duration : 1 h 50 min
Overall bit rate : 2 859 kb/s
Movie name : Fatherhood.2021.Дубляж.Netflix.x264.HDRip-AVC.[wolf1245.ExKinoRay]
Encoded date : UTC 2022-06-04 18:06:03
Writing application : mkvmerge v68.0.0 ('The Curtain') 64-bit
Writing library : libebml v1.4.2 + libmatroska v1.6.4
Video
ID : 1
Format : AVC
Format/Info : Advanced Video Codec
Format profile : [email protected]
Format settings : CABAC / 10 Ref Frames
Format settings, CABAC : Yes
Format settings, Reference frames : 10 frames
Codec ID : V_MPEG4/ISO/AVC
Duration : 1 h 49 min
Bit rate : 1 995 kb/s
Width : 1 024 pixels
Height : 428 pixels
Display aspect ratio : 2.40:1
Frame rate mode : Constant
Frame rate : 23.976 (24000/1001) FPS
Color space : YUV
Chroma subsampling : 4:2:0
Bit depth : 8 bits
Scan type : Progressive
Bits/(Pixel*Frame) : 0.190
Stream size : 1.52 GiB (69%)
Title : -=[wolf1245.ExKinoRay]=-
Writing library : x264 core 163 r3060 5db6aa6
Encoding settings : cabac=1 / ref=10 / deblock=1:-3:-3 / analyse=0x3:0x133 / me=umh / subme=11 / psy=1 / psy_rd=1.05:0.20 / mixed_ref=1 / me_range=32 / chroma_me=1 / trellis=2 / 8x8dct=1 / cqm=0 / deadzone=22,11 / fast_pskip=1 / chroma_qp_offset=-3 / threads=10 / lookahead_threads=2 / sliced_threads=0 / nr=0 / decimate=0 / interlaced=0 / bluray_compat=0 / constrained_intra=0 / bframes=10 / b_pyramid=2 / b_adapt=2 / b_bias=0 / direct=3 / weightb=1 / open_gop=0 / weightp=2 / keyint=240 / keyint_min=24 / scenecut=40 / intra_refresh=0 / rc_lookahead=150 / rc=2pass / mbtree=0 / bitrate=1995 / ratetol=1.0 / qcomp=0.60 / qpmin=0 / qpmax=69 / qpstep=4 / cplxblur=20.0 / qblur=0.5 / vbv_maxrate=50000 / vbv_bufsize=62500 / nal_hrd=none / filler=0 / ip_ratio=1.40 / pb_ratio=1.30 / aq=1:1.20
Language : English
Default : Yes
Forced : No
Color range : Limited
Color primaries : BT.709
Matrix coefficients : BT.709
Audio #1
ID : 2
Format : AC-3
Format/Info : Audio Coding 3
Commercial name : Dolby Digital
Codec ID : A_AC3
Duration : 1 h 50 min
Bit rate mode : Constant
Bit rate : 448 kb/s
Channel(s) : 6 channels
Channel layout : L R C LFE Ls Rs
Sampling rate : 48.0 kHz
Frame rate : 31.250 FPS (1536 SPF)
Compression mode : Lossy
Stream size : 354 MiB (16%)
Title : Дубляж | Netflix | RUS
Language : Russian
Service kind : Complete Main
Default : Yes
Forced : No
Audio #2
ID : 3
Format : AC-3
Format/Info : Audio Coding 3
Commercial name : Dolby Digital
Codec ID : A_AC3
Duration : 1 h 49 min
Bit rate mode : Constant
Bit rate : 448 kb/s
Channel(s) : 6 channels
Channel layout : L R C LFE Ls Rs
Sampling rate : 48.0 kHz
Frame rate : 31.250 FPS (1536 SPF)
Compression mode : Lossy
Stream size : 350 MiB (15%)
Title : Original | ENG
Language : English
Service kind : Complete Main
Default : No
Forced : No
Text #1
ID : 4
Format : UTF-8
Codec ID : S_TEXT/UTF8
Codec ID/Info : UTF-8 Plain Text
Duration : 1 h 46 min
Bit rate : 0 b/s
Count of elements : 9
Stream size : 508 Bytes (0%)
Title : Forced
Language : Russian
Default : Yes
Forced : Yes
Text #2
ID : 5
Format : UTF-8
Codec ID : S_TEXT/UTF8
Codec ID/Info : UTF-8 Plain Text
Duration : 1 h 46 min
Bit rate : 105 b/s
Count of elements : 1782
Stream size : 82.3 KiB (0%)
Title : Full
Language : Russian
Default : No
Forced : No
Text #3
ID : 6
Format : UTF-8
Codec ID : S_TEXT/UTF8
Codec ID/Info : UTF-8 Plain Text
Duration : 1 h 43 min
Bit rate : 94 b/s
Count of elements : 2036
Stream size : 71.4 KiB (0%)
Language : English
Default : No
Forced : No
Menu
00:00:00.000 : :Chapter 01
00:07:07.552 : :Chapter 02
00:13:49.787 : :Chapter 03
00:18:34.864 : :Chapter 04
00:26:44.853 : :Chapter 05
00:33:29.674 : :Chapter 06
00:40:14.996 : :Chapter 07
00:44:20.366 : :Chapter 08
00:50:51.674 : :Chapter 09
00:55:13.936 : :Chapter 10
01:01:00.866 : :Chapter 11
01:07:02.769 : :Chapter 12
01:12:45.570 : :Chapter 13
01:19:52.246 : :Chapter 14
01:26:13.085 : :Chapter 15
01:33:38.446 : :Chapter 16
Релиз от:
Автор релиза:



Скачать Отцовство через торрент http://i5-imageban-ru.translate.goog/out/2021/06/18/bb66bd6b71da92e84019691ee32c3a61.png Скачать, смотреть онлайн Отцовство бесплантно в хорошем качестве Описание: Драма об отце, который остается один с новорожденной дочерью на руках после того, как его жена неожиданно умирает на следующий ... 10 10 4
Торрент: Зарегистрирован [2022-06-04 18:23] · скачан: 50 раз
Статус: √ проверено
Размер: 2.21 GB
Как cкачать? Как скачать Отцовство через торрент | UTorrent

% Раздел Тема Автор DL S | L
Фильмы [HD 720p, 1080p] (Хороший звук DUB, MVO) [ 4.43 GB ] Отцовство / Fatherhood | Пифагор | 720p bober100 Скачать
1 | 0
Фильмы [HD 720p, 1080p] (Хороший звук DUB, MVO) [ 10.54 GB ] Отцовство / Fatherhood | Пифагор | 1080p bober100 Скачать
2 | 0
Фильмы 2021 [DVDrip, WEB-DLRip, HDrip] (DUB, MVO) [ 1.46 GB ] Отцовство / Fatherhood | Пифагор | BDRip bober100 Скачать
2 | 0

28-11-2019 20:33  


Отключить вcю реклaмy на сайте, в т.ч. и в плеере онлайн просмотра!

    Дорогой пользователь! Огромная просьба, поблагодарите релизера, оцените раздачу и оставьте свои комментарий, если Вы скачали Отцовство через торрент бесплатно!!
    Комментировать посты могут только пользователи прошедшие не сложную регистрацию
    Показать сообщения:    


    Отцовство через торрент
    Скачать бесплатно Отцовство
    Отцовство скачать торрент
    Отцовство смотреть онлайн
    Cкачать фильм Отцовство бесплатно
    Отцовство скачать торрент в хорошем качестве
    Отцовство смотреть онлайн бесплатно в хорошем качестве
    Вы не можете начинать темы
    Вы не можете отвечать на сообщения
    Вы не можете редактировать свои сообщения
    Вы не можете удалять свои сообщения
    Вы не можете голосовать в опросах
    Вы не можете прикреплять файлы к сообщениям
    Вы можете скачивать файлы
    Отцовство / Fatherhood [2021, Драма, комедия, HDRip-AVC] Дубляж [Netflix] от ExKinoRay смотреть онлайн, скачать торрент picoco.icu