Всегда рабочее зеркало без VPN и Proxy просто перед .vidak.icu напиши любое слово или цифру, Пример http://onwe.vidak.icu

MVO

2 сезон

1 сезон

1

1 сезон

iTunes

2 сезон

13

1 сезон

Deluxe

pack

Рекомендуем

Пиратка

30

ВАЖНО

RePack

MK11

RePack

jed

RePack

fifa19

RePack

RDR2

RePack

NEED FOR SPEED™ PAYBACK

Кинопоиск HD

6 сезон

 Острые козырьки 6 сезон

Все сериалы

все сериалы на PB.wtf

RePack

FAR CRY 5

Anonymous, нам критически не хватает 5601 руб. на оплату серверов и переферии за Апрель, помоги нам пожалуйста, вся надежда только на тебя. В благодарность мы отключим тебе всю рекламу на сайте!

×
  
Magnet ссылка

Бойцовский клуб / Fight Club (Дэвид Финчер) [1999, боевик, триллер, драма, HDTVRip - HEVC 1080p 10 bit 60 FPS, DUB, AVO] pb.wtf

Бойцовский клуб через торрент pb.wtf

Раздают: 1 [ 0 KB/s ] Качают: 1 [ 0 KB/s ]
Размер: 7.06 GB | Добавлен: 11 мес. назад | Торрент скачан:102 раза
Смотреть онлайн Бойцовский клуб | Скачать    Ребята, помогите собрать деньги на оплату серверов!!!

20-06-2021 15:08 Бойцовский клуб Скачать торрент  

Fight Club
«Интриги. Хаос. Мыло»


Год выпуска: 1999
Страна: Германия, США
Жанр: триллер, драма, детектив

Продолжительность: 02:19:09
Перевод: Дублированный
Перевод: Одноголосый закадровый | В. Завгородний
Субтитры: русские

Режиссер: Дэвид Финчер
В ролях: Эдвард Нортон, Брэд Питт, Хелена Бонем Картер, Мит Лоуф, Зэк Гренье, Холт МакКэллани, Джаред Лето, Ричмонд Аркетт, Дэвид Эндрюс, Джордж Магуайр

Описание:
Сотрудник страховой компании страдает хронической бессонницей и отчаянно пытается вырваться из мучительно скучной жизни. Однажды в очередной командировке он встречает некоего Тайлера Дёрдена — харизматического торговца мылом с извращенной философией. Тайлер уверен, что самосовершенствование — удел слабых, а единственное, ради чего стоит жить — саморазрушение.

Проходит немного времени, и вот уже новые друзья лупят друг друга почем зря на стоянке перед баром, и очищающий мордобой доставляет им высшее блаженство. Приобщая других мужчин к простым радостям физической жестокости, они основывают тайный Бойцовский клуб, который начинает пользоваться невероятной популярностью.

Мировая премьера: 10 сентября 1999
rating

Качество: HDTVRip 1080p Rip by DD2D3
Исходник: HDTV by MediaClub
Формат: MKV
Видео: V_MPEGH/ISO/HEVC; 1920x1080 (16:9); 4996 Kbps; 59,940 fps; 0,040 bpp
Аудио: русский / DTS / 754 kbps / 6 ch/ 24 bit ||
Аудио: русский / DTS / 1509 kbps / 6 ch/ 24 bit ||
Навигация по главам: есть



Общее
Уникальный идентификатор : 203305965042577140774549317859450799870 (0x98F34DF9ECD363F7AEBD5743D22FC6FE)
Полное имя : D:\Fight Club (1999) HDTVRip - HEVC 1080p 10 bit 60 FPS.mkv
Формат : Matroska
Версия формата : Version 4
Размер файла : 7,06 Гбайт
Продолжительность : 2 ч. 19 м.
Общий поток : 7 268 Кбит/сек
Название фильма : Rip by from DD2D3
Дата кодирования : UTC 2021-06-20 14:20:21
Программа кодирования : mkvmerge v10.0.0 ('To Drown In You') 32bit
Библиотека кодирования : libebml v1.3.4 + libmatroska v1.4.5
Attachments : poster

Видео
Идентификатор : 1
Формат : HEVC
Формат/Информация : High Efficiency Video Coding
Профиль формата : Main@L4.1@Main
Идентификатор кодека : V_MPEGH/ISO/HEVC
Продолжительность : 2 ч. 19 м.
Битрейт : 4 997 Кбит/сек
Ширина : 1 920 пикселей
Высота : 1 080 пикселей
Соотношение сторон : 16:9
Режим частоты кадров : Постоянный
Частота кадров : 59,940 (60000/1001) кадров/сек
Цветовое пространство : YUV
Субдискретизация насыщенности : 4:2:0
Битовая глубина : 8 бит
Бит/(Пиксели*Кадры) : 0.040
Размер потока : 4,86 Гбайт (69%)
Библиотека кодирования : x265 2.3+33-0b7d54dbb71a87a0:[Windows][MSVC 1800][64 bit] 8bit: KG7x [x265.ru]
Настройки программы : cpuid=1173503 / frame-threads=2 / numa-pools=4 / wpp / no-pmode / no-pme / no-psnr / no-ssim / log-level=2 / input-csp=1 / input-res=1920x1080 / interlace=0 / total-frames=500398 / level-idc=41 / high-tier=1 / uhd-bd=0 / ref=3 / no-allow-non-conformance / no-repeat-headers / annexb / no-aud / no-hrd / info / hash=0 / no-temporal-layers / open-gop / min-keyint=25 / keyint=250 / bframes=4 / b-adapt=0 / b-pyramid / bframe-bias=0 / rc-lookahead=15 / lookahead-slices=6 / scenecut=40 / no-intra-refresh / ctu=64 / min-cu-size=8 / no-rect / no-amp / max-tu-size=32 / tu-inter-depth=1 / tu-intra-depth=1 / limit-tu=0 / rdoq-level=0 / dynamic-rd=0.00 / no-ssim-rd / signhide / no-tskip / nr-intra=0 / nr-inter=0 / no-constrained-intra / strong-intra-smoothing / max-merge=2 / limit-refs=3 / no-limit-modes / me=1 / subme=2 / merange=57 / temporal-mvp / weightp / no-weightb / no-analyze-src-pics / deblock=0:0 / sao / no-sao-non-deblock / rd=2 / no-early-skip / rskip / fast-intra / no-tskip-fast / no-cu-lossless / no-b-intra / rdpenalty=0 / psy-rd=2.00 / psy-rdoq=0.00 / no-rd-refine / analysis-mode=0 / no-lossless / cbqpoffs=0 / crqpoffs=0 / rc=abr / bitrate=5000 / qcomp=0.60 / qpstep=4 / stats-write=0 / stats-read=2 / cplxblur=20.0 / qblur=0.5 / ipratio=1.40 / pbratio=1.30 / aq-mode=1 / aq-strength=1.00 / cutree / zone-count=0 / no-strict-cbr / qg-size=32 / no-rc-grain / qpmax=69 / qpmin=0 / sar=1 / overscan=0 / videoformat=5 / range=0 / colorprim=2 / transfer=2 / colormatrix=2 / chromaloc=0 / display-window=0 / max-cll=0,0 / min-luma=0 / max-luma=255 / log2-max-poc-lsb=8 / vui-timing-info / vui-hrd-info / slices=1 / opt-qp-pps / opt-ref-list-length-pps / no-multi-pass-opt-rps / scenecut-bias=0.05 / no-opt-cu-delta-qp / no-aq-motion / no-hdr / no-hdr-opt / refine-level=5 / no-limit-sao
Default : Да
Forced : Нет

Аудио #1
Идентификатор : 2
Формат : DTS
Формат/Информация : Digital Theater Systems
Идентификатор кодека : A_DTS
Продолжительность : 2 ч. 19 м.
Вид битрейта : Постоянный
Битрейт : 755 Кбит/сек
Каналы : 6 каналов
Channel layout : C L R Ls Rs LFE
Частота : 48,0 КГц
Частота кадров : 93,750 кадра/сек (512 SPF)
Битовая глубина : 24 бит
Метод сжатия : С потерями
Размер потока : 751 Мбайт (10%)
Заголовок : Дубляж
Язык : Russian
Default : Да
Forced : Нет

Аудио #2
Идентификатор : 3
Формат : DTS
Формат/Информация : Digital Theater Systems
Идентификатор кодека : A_DTS
Продолжительность : 2 ч. 19 м.
Вид битрейта : Постоянный
Битрейт : 1 510 Кбит/сек
Каналы : 6 каналов
Channel layout : C L R Ls Rs LFE
Частота : 48,0 КГц
Частота кадров : 93,750 кадра/сек (512 SPF)
Битовая глубина : 24 бит
Метод сжатия : С потерями
Размер потока : 1,47 Гбайт (21%)
Заголовок : Завгородний
Язык : Russian
Default : Нет
Forced : Нет

Текст
Идентификатор : 4
Формат : UTF-8
Идентификатор кодека : S_TEXT/UTF8
Идентификатор кодека/Информация : UTF-8 Plain Text
Продолжительность : 2 ч. 16 м.
Битрейт : 101 бит/сек
Count of elements : 2595
Размер потока : 101 Кбайт (0%)
Язык : Russian
Default : Нет
Forced : Нет

Меню
00:00:00.000 : en:00:00:00.000
00:02:08.378 : en:00:02:08.378
00:03:54.818 : en:00:03:54.818
00:04:46.328 : en:00:04:46.328
00:06:21.923 : en:00:06:21.923
00:10:22.205 : en:00:10:22.205
00:11:34.903 : en:00:11:34.903
00:19:13.569 : en:00:19:13.569
00:21:41.175 : en:00:21:41.175
00:25:48.005 : en:00:25:48.005
00:29:09.331 : en:00:29:09.331
00:32:27.195 : en:00:32:27.195
00:34:10.465 : en:00:34:10.465
00:35:57.947 : en:00:35:57.947
00:41:36.994 : en:00:41:36.994
00:47:18.961 : en:00:47:18.961
00:48:37.873 : en:00:48:37.873
01:00:18.281 : en:01:00:18.281
01:01:56.254 : en:01:01:56.254
01:09:48.434 : en:01:09:48.434
01:14:57.952 : en:01:14:57.952
01:15:47.626 : en:01:15:47.626
01:19:35.854 : en:01:19:35.854
01:21:29.468 : en:01:21:29.468
01:27:38.545 : en:01:27:38.545
01:35:36.981 : en:01:35:36.981
01:37:48.071 : en:01:37:48.071
01:41:26.789 : en:01:41:26.789
01:45:07.468 : en:01:45:07.468
01:47:58.180 : en:01:47:58.180
01:50:34.878 : en:01:50:34.878
01:56:53.173 : en:01:56:53.173
02:00:36.813 : en:02:00:36.813
02:05:55.715 : en:02:05:55.715
02:09:38.354 : en:02:09:38.354
02:15:53.979 : en:02:15:53.979
скриншот   скриншот   скриншот   скриншот  


© Оформление by DD2D3 pb.wtf



Скачать Бойцовский клуб через торрент https://pic1.kartinco.top/new/img/2021-06/20/df79xqwoeq8ukuyz2hwg5dpjd.jpg Скачать, смотреть онлайн Бойцовский клуб бесплантно в хорошем качестве Описание: Сотрудник страховой компании страдает хронической бессонницей и отчаянно пытается вырваться из мучительно скучной жизни. Однажды ... 10 10 5
Info! Золотая раздача, скачанное не засчитывается.
Торрент: Зарегистрирован [2021-06-20 15:08] · скачан: 102 раз
Статус: √ проверено
Размер: 7.06 GB
Как cкачать? Как скачать Бойцовский клуб через торрент | UTorrent

% Раздел Тема Автор DL S | L
Фильмы (HD 720p, 1080p) (48-60 fps) [ 5.56 GB ] Бойцовский клуб / Fight Club [1999 WEB-DLRip 720p / 60 FPS ] от R.G. HD-Films slaventi-69 Скачать
2 | 1
Фильмы [HD 720p, 1080p] (Хороший звук DUB, MVO) [ 8.21 GB ] Бойцовский клуб / Fight Club [1999 BDRip 1080p] + 3x[MVO] + [DVO] + 4x[AVO] killermax2013 Скачать
2 | 0
Фильмы 2017 [DVDrip, WEB-DLRip, HDrip] (DUB, MVO) [ 745 MB ] Женский бойцовский клуб / Female Fight Club [2017 HDRip] MVO [Прайд Продакшн] surikmas Скачать
1 | 0
T Фильмы [HD 720p, 1080p] (Хороший звук DUB, MVO) [ 6.8 GB ] Женский бойцовский клуб / Female Fight Club [2017 BDRip 1080p] MVO bober100 Скачать
1 | 0
Фильмы (WEB-DL 720p, 1080p) [ 3.74 GB ] Женский бойцовский клуб / Female Fight Club [2017 WEB-DL 1080p] MVO [Прайд Продакшн] bober100 Скачать
1 | 0
Фильмы [HD 720p, 1080p] (Хороший звук DUB, MVO) [ 11.82 GB ] Бойцовский клуб / Fight Club [1999 BDRip 1080p HEVC +MVO] Мичман37 Скачать
1 | 0
National Geographic [ 13.2 GB ] Nat Geo Wild: Бойцовский клуб для животных. Лучшее / Animal Fight Club [01-06] [2018 ДокументальныйHDTV 1080i ] Armstrong Скачать
1 | 0

28-11-2019 20:33  

Отключить всю рекламу на сайте

21-06-2021 20:17 Бойцовский клуб Скачать торрент  


Большое Спасибо dd2d3!!!
Как всегда помогу с раздачей!
Спасибо Друг, что ты есть!

Best Regards, Your V&S!
pb.wtf



    Дорогой пользователь! Огромная просьба, поблагодарите релизера, оцените раздачу и оставьте свои комментарий, если Вы скачали Бойцовский клуб через торрент бесплатно!
    Комментировать посты могут только пользователи прошедшие не сложную регистрацию
    Показать сообщения:    

    Бойцовский клуб через торрент
    Скачать бесплатно Бойцовский клуб
    Бойцовский клуб скачать торрент
    Бойцовский клуб смотреть онлайн
    Cкачать фильм Бойцовский клуб бесплатно
    Бойцовский клуб скачать торрент в хорошем качестве
    Бойцовский клуб смотреть онлайн бесплатно в хорошем качестве


    Вы не можете начинать темы
    Вы не можете отвечать на сообщения
    Вы не можете редактировать свои сообщения
    Вы не можете удалять свои сообщения
    Вы не можете голосовать в опросах
    Вы не можете прикреплять файлы к сообщениям
    Вы можете скачивать файлы