Присоединяйтесь к нам в Telegram!, здесь всегда актуальный адрес сайта, оперативная поддержка и многое другое!!

>

5.9

iTunes

7.4

iTunes

9.4

1 сезон

1

7.4

2 сезон

7.2

iTunes

7.3

1 сезон

13

6.1

iTunes

8.3

Пиратка

30

ULTIMATE

pack

9.9

Лицензия

ВАЖНО

ИГРА 18+

pack

7.3

RePack

MK11

7.7

RePack

jed

7.8

RePack

fifa19

8.5

RePack

RDR2

RePack

NEED FOR SPEED™ PAYBACK

5 сезон

9 сезон

Бесстыжие 9 сезон

Все сериалы

все сериалы на PB.wtf

RePack

FAR CRY 5

Anonymous, доброе утро, мы катастрофически не успеваем собрать деньги на оплату серверов, помогите нам пожалуйста 5,10,15р., для нас важна любая помощь . В качестве благодарности мы отключим Вам всю рекламу на сайте (укажите свой ник в строку Ваше имя)!

×
  
Magnet ссылка

Тихое место 2 / A Quiet Place Part II (Джон Красински) [2021, ужасы, фантастика, триллер, драма, WEB-DLRip-AVC] [DUB] [Line] + [DVO] (Pazl Voice) pb.wtf

Тихое место 2 через торрент pb.wtf

Размер: 2.16 GB | Добавлен: 5 мес. 6 д. назад | Торрент скачан:115 раз
Смотреть онлайн Тихое место 2 | Скачать    Ребята, помогите собрать деньги на оплату серверов!!!

20-06-2021 16:07 Тихое место 2 Скачать торрент  

Тихое место 2 / A Quiet Place Part II
«Тсссс! Если хочешь выжить - не издавай ни звука»

Год выхода: 2021
Выпущено: США
Жанр: ужасы, фантастика, триллер, драма
Продолжительность: 01:37:01
Перевод 1: Профессиональный (дублированный) Line
Перевод 2: Любительский (двухголосый закадровый) Pazl Voice
Субтитры: русские, английские
Режиссер: Джон Красински / John Krasinski

В ролях: Эмили Блант, Джон Красински, Милли Симмондс, Ноа Джуп, Киллиан Мёрфи, Джимон Хонсу, Окете Онаодован, Скут МакНэйри, Захари Голингер, Блейк ДеЛонг

О фильме:
Семья Эбботт продолжает бороться за жизнь в полной тишине. Вслед за смертельной угрозой, с которой они столкнулись в собственном доме, им предстоит познать ужасы внешнего мира. Они вынуждены отправиться в неизвестность, где быстро обнаруживают, что существа, охотящиеся на звук, — не единственные враги за пределами безопасной песчаной тропы.
rating скриншот  

Качество: WEB-DLRip-AVC
Формат: MKV
Видео: MPEG-4 AVC, 1056x440 (2.40:1), 23.976 fps, ~2299 kbps avg, 0.206 bit/pixel
Аудио 1: 48 kHz, AC3 Dolby Digital, 2/0 (L,R) ch, ~192 kbps avg Line
Аудио 2: 48 kHz, AC3 Dolby Digital, 2/0 (L,R) ch, ~192 kbps avg Pazl Voice
Аудио 3: 48 kHz, AC3 Dolby Digital, 3/2 (L,C,R,l,r) + LFE ch, ~448 kbps avg Original
скриншот  скриншот  скриншот  
Complete name : F:\Тихое место 2 (2021) WEB-DLRip-AVC__ivanes.mkv
Format : Matroska
Format version : Version 2
File size : 2.16 GiB
Duration : 1 h 37 min
Overall bit rate : 3 194 kb/s
Movie name : Тихое место 2 (2021) WEB-DLRip-AVC__ivanes
Encoded date : UTC 2021-06-29 13:30:44
Writing application : mkvmerge v4.4.0 ('Die Wiederkehr') сборка от Jan 3 2011 21:40:45
Writing library : libebml v1.0.0 + libmatroska v1.0.0
Cover : Yes
Attachments : cover.jpg

Video
ID : 1
Format : AVC
Format/Info : Advanced Video Codec
Format profile : High@L4.1
Format settings : CABAC / 13 Ref Frames
Format settings, CABAC : Yes
Format settings, Reference : 13 frames
Codec ID : V_MPEG4/ISO/AVC
Duration : 1 h 37 min
Bit rate : 2 299 kb/s
Width : 1 056 pixels
Height : 440 pixels
Display aspect ratio : 2.40:1
Frame rate mode : Constant
Frame rate : 23.976 (24000/1001) FPS
Color space : YUV
Chroma subsampling : 4:2:0
Bit depth : 8 bits
Scan type : Progressive
Bits/(Pixel*Frame) : 0.206
Stream size : 1.56 GiB (72%)
Title : Rip by ivanes
Writing library : x264 core 164 r3065+55M 280faca t_mod_New [(8 & 10)-bit@all X86_64]
Encoding settings : cabac=1 / ref=13 / deblock=1:-3:-2 / analyse=0x3:0x113 / me=umh / subme=10 / psy=1 / fade_compensate=0.00 / psy_rd=1.00:0.00 / mixed_ref=1 / me_range=32 / chroma_me=1 / trellis=2 / 8x8dct=1 / cqm=0 / deadzone=21,11 / fast_pskip=0 / chroma_qp_offset=-2 / threads=16 / lookahead_threads=3 / sliced_threads=0 / nr=0 / decimate=1 / interlaced=0 / bluray_compat=0 / constrained_intra=0 / fgo=0 / bframes=13 / b_pyramid=2 / b_adapt=2 / b_bias=0 / direct=1 / weightb=1 / open_gop=0 / weightp=2 / keyint=240 / keyint_min=23 / scenecut=40 / intra_refresh=0 / rc_lookahead=60 / rc=crf / mbtree=1 / crf=17.9000 / qcomp=0.65 / qpmin=0:0:0 / qpmax=69:69:69 / qpstep=4 / vbv_maxrate=50000 / vbv_bufsize=62500 / crf_max=0.0 / nal_hrd=none / filler=0 / ip_ratio=1.40 / aq=1:1.00 / aq-sensitivity=10.00 / aq-factor=1.00:1.00:1.00 / aq2=0 / aq3=0
Default : Yes
Forced : No
Statistics Tags Issue : mkvmerge v42.0.0 ('Overtime') 64-bit 2021-06-29 13:24:41 / mkvmerge v4.4.0 ('Die Wiederkehr') сборка от Jan 3 2011 21:40:45 2021-06-29 13:30:44
FromStats_BitRate : 2360046
FromStats_Duration : 01:37:01.274000000
FromStats_FrameCount : 139571
FromStats_StreamSize : 1717309380

Audio #1
ID : 2
Format : AC-3
Format/Info : Audio Coding 3
Commercial name : Dolby Digital
Codec ID : A_AC3
Duration : 1 h 37 min
Bit rate mode : Constant
Bit rate : 192 kb/s
Channel(s) : 2 channels
Channel layout : L R
Sampling rate : 48.0 kHz
Frame rate : 31.250 FPS (1536 SPF)
Compression mode : Lossy
Stream size : 133 MiB (6%)
Title : Line
Language : Russian
Service kind : Complete Main
Default : Yes
Forced : No

Audio #2
ID : 3
Format : AC-3
Format/Info : Audio Coding 3
Commercial name : Dolby Digital
Codec ID : A_AC3
Duration : 1 h 37 min
Bit rate mode : Constant
Bit rate : 192 kb/s
Channel(s) : 2 channels
Channel layout : L R
Sampling rate : 48.0 kHz
Frame rate : 31.250 FPS (1536 SPF)
Compression mode : Lossy
Stream size : 133 MiB (6%)
Title : Pazl Voice
Language : Russian
Service kind : Complete Main
Default : No
Forced : No

Audio #3
ID : 4
Format : AC-3
Format/Info : Audio Coding 3
Commercial name : Dolby Digital
Codec ID : A_AC3
Duration : 1 h 37 min
Bit rate mode : Constant
Bit rate : 448 kb/s
Channel(s) : 6 channels
Channel layout : L R C LFE Ls Rs
Sampling rate : 48.0 kHz
Frame rate : 31.250 FPS (1536 SPF)
Compression mode : Lossy
Stream size : 311 MiB (14%)
Title : Original
Language : English
Service kind : Complete Main
Default : No
Forced : No

Text #1
ID : 5
Format : UTF-8
Codec ID : S_TEXT/UTF8
Codec ID/Info : UTF-8 Plain Text
Title : Full
Language : Russian
Default : No
Forced : No

Text #2
ID : 6
Format : UTF-8
Codec ID : S_TEXT/UTF8
Codec ID/Info : UTF-8 Plain Text
Title : Full
Language : English
Default : No
Forced : No
pb.wtf



Скачать Тихое место 2 через торрент https://i1.imageban.ru/out/2021/06/19/49347a8e3622efcc4f8aa91c77d75b0f.png Скачать, смотреть онлайн Тихое место 2 бесплантно в хорошем качестве О фильме:Семья Эбботт продолжает бороться за жизнь в полной тишине. Вслед за смертельной угрозой, с которой они столкнулись в собственном ... 9.6 10 19
Торрент: Зарегистрирован [2021-06-29 14:10] · скачан: 115 раз
Статус: T временная
Размер: 2.16 GB
Как cкачать? Как скачать Тихое место 2 через торрент | UTorrent

% Раздел Тема Автор DL S | L
Ultra HD (UHD: 2K, 4K, 8K) — видео сверхвысокой чёткости [ 42.75 GB ] Тихое место 2 / A Quiet Place Part II [2021 UHD BDRemux 2160p ] DUB [] bober100 Скачать
1 | 0
Фильмы [HD 720p, 1080p] (Хороший звук DUB, MVO) [ 12.58 GB ] Тихое место 2 / A Quiet Place Part II [2021 BDRip 1080p] DUB [] bober100 Скачать
5 | 0
Фильмы 2021 [DVDrip, WEB-DLRip, HDrip] (DUB, MVO) [ 1.47 GB ] Тихое место 2 / A Quiet Place Part II [2021 BDRip] - [] Twi7ter Скачать
34 | 0
Фильмы (WEB-DL 720p, 1080p) [ 7.66 GB ] Тихое место 2 / A Quiet Place Part II [2021 WEB-DL 1080p] bober100 Скачать
7 | 0
Фильмы [HD 720p, 1080p] (Хороший звук DUB, MVO) [ 5.13 GB ] Тихое место 2 / A Quiet Place Part II [2021 BDRip 720p] DUB [] bober100 Скачать
8 | 0
Ultra HD (UHD: 2K, 4K, 8K) — видео сверхвысокой чёткости [ 30.17 GB ] Тихое место 2 / A Quiet Place Part II [2021 UHD WEB-DL-HEVC 2160p] 2xDUB [ Пифагор / Кинопоиск HD] bober100 Скачать
3 | 0
Фильмы 2021 [DVDrip, WEB-DLRip, HDrip] (DUB, MVO) [ 746 MB ] Тихое место 2 / A Quiet Place Part II [2021 HDRip] bober100 Скачать
3 | 0


Последний раз редактировалось: killermax2013 (2021-06-29 14:11), всего редактировалось 2 раз(а)

28-11-2019 20:33  

Отключить всю рекламу на сайте

    Дорогой пользователь! Огромная просьба, поблагодарите релизера, оцените раздачу и оставьте свои комментарий, если Вы скачали Тихое место 2 через торрент бесплатно!
    Комментировать посты могут только пользователи прошедшие не сложную регистрацию
    Показать сообщения:    

    Тихое место 2 через торрент
    Скачать бесплатно Тихое место 2
    Тихое место 2 скачать торрент
    Тихое место 2 смотреть онлайн
    Cкачать фильм Тихое место 2 бесплатно
    Тихое место 2 скачать торрент в хорошем качестве
    Тихое место 2 смотреть онлайн бесплатно в хорошем качестве


    Вы не можете начинать темы
    Вы не можете отвечать на сообщения
    Вы не можете редактировать свои сообщения
    Вы не можете удалять свои сообщения
    Вы не можете голосовать в опросах
    Вы не можете прикреплять файлы к сообщениям
    Вы можете скачивать файлы