Доктор Стрэндж

Лицензия

Добыча

Дубляж

Дом дракона

1 сезон

Тор

Дубляж

В эфире

Дубляж

Там, где раки поют

MVO

Властелин колец

1 сезон

Ultimate

pack

Рекомендуем

30

Пиратка

ВАЖНО

ВАЖНО

Ghostwire

Пиратка

jed

RePack

nioh2

RePack

RDR2

RePack

NEED FOR SPEED™ PAYBACK

RePack

скачать торрент

Кинопоиск HD

Острые козырьки 6 сезон

6 сезон

FAR CRY 6

RePack

скачать торрент

Лицензия

скачать торрент

MVO

1

1 сезон

скачать торрент

1 сезон

скачать торрент

Лицензия

  

...а шарик летит (Михаил Кац) [1987 г., детский, семейный, приключения, короткометражный, SATRip-AVC]

...а шарик летит через торрент pb.wtf

Раздают: 1 [ 0 KB/s ]
Размер: 635 MB | Добавлен: 1 год 5 мес. назад | Торрент скачан:6 раз
Смотреть онлайн | Скачать   

20-06-2021 17:42 ...а шарик летит Скачать торрент  

...а шарик летит

Год выпуска: 1987
Страна: СССР | Одесская киностудия
Жанр: детский, семейный, приключения, короткометражный
Продолжительность: 00:34:00
Перевод: не требуется

Режиссер: Михаил Кац

В ролях: Оксана Кудоярова, Максим Жарков, Светлана Халамонова, Андрей Попов, Александр Делибаш, Максим Жук

Описание: Девочка Женя стремится быть лидером среди подростков: она на головокружительной высоте переходит с одной крыши на другую, ничего, кроме мышей, не боится... Фильм рассказывает об одном дне девочки - дне ее рождения.



Файл
Формат: MKV
Кодек: x264
Качество: SATRip-AVC (DVB)
Видео: MPEG-4 AVC, [email protected], 25.000 fps, 2415 kbps, 0.234 bit/pixel
Аудио: Русский, AC3, 2 chnls, 192 kbps
x264 [info]: frame I:263 Avg QP:17.15 size: 44719
x264 [info]: frame P:10808 Avg QP:18.19 size: 26306
x264 [info]: frame B:39953 Avg QP:19.88 size: 8007
x264 [info]: consecutive B-frames: 1.1% 2.2% 7.7% 18.2% 23.7% 40.6% 4.3% 0.6% 0.4% 0.3% 0.1% 0.3% 0.2% 0.2% 0.2%
Format : Matroska
Format version : Version 4
File size : 635 MiB
Duration : 34 min 0 s
Overall bit rate mode : Variable
Overall bit rate : 2 610 kb/s
Movie name : ...а шарик летит (1987) - Rip by -{am}-
Encoded date : UTC 2021-06-20 14:42:04
Writing application : mkvmerge v7.2.0 ('On Every Street') 32bit built on Sep 13 2014 15:42:11
Writing library : libebml v1.3.0 + libmatroska v1.4.1
Attachments : poster.png

Video
ID : 1
Format : AVC
Format/Info : Advanced Video Codec
Format profile : [email protected]
Format settings : CABAC / 16 Ref Frames
Format settings, CABAC : Yes
Format settings, Reference : 16 frames
Codec ID : V_MPEG4/ISO/AVC
Duration : 34 min 0 s
Bit rate mode : Variable
Bit rate : 2 415 kb/s
Maximum bit rate : 62.5 Mb/s
Width : 720 pixels
Height : 574 pixels
Display aspect ratio : 4:3
Frame rate mode : Constant
Frame rate : 25.000 FPS
Color space : YUV
Chroma subsampling : 4:2:0
Bit depth : 8 bits
Scan type : Progressive
Bits/(Pixel*Frame) : 0.234
Stream size : 587 MiB (93%)
Title : a.sharik.letit.1987.{am}.768.Rus
Writing library : x264 core 163 r3059+79M f2a8266 t_mod_test_xavc [(8 & 10)[email protected] X86_64]
Encoding settings : cabac=1 / ref=16 / deblock=1:-3:-2 / analyse=0x3:0x133 / me=umh / subme=11 / psy=1 / fade_compensate=0.00 / psy_rd=1.07:0.10 / mixed_ref=1 / me_range=48 / chroma_me=1 / trellis=2 / 8x8dct=1 / cqm=2 / deadzone=21,11 / fast_pskip=0 / chroma_qp_offset=-3 / threads=18 / lookahead_threads=4 / sliced_threads=0 / nr=0 / decimate=0 / interlaced=0 / bluray_compat=0 / constrained_intra=0 / fgo=0 / bframes=14 / b_pyramid=2 / b_adapt=2 / b_bias=0 / direct=3 / weightb=1 / open_gop=0 / weightp=2 / keyint=250 / keyint_min=25 / scenecut=40 / intra_refresh=0 / rc_lookahead=60 / rc=crf / mbtree=0 / crf=18.5000 / qcomp=0.60 / qpmin=1:1:1 / qpmax=30:30:30 / qpstep=4 / vbv_maxrate=62500 / vbv_bufsize=78125 / crf_max=0.0 / nal_hrd=vbr / filler=0 / ip_ratio=1.25 / pb_ratio=1.30 / aq=3:1.00 / aq-sensitivity=10.00 / aq-factor=1.00:1.00:1.00 / aq2=0 / aq3=0
Language : Russian
Default : Yes
Forced : No
Color range : Limited
Color primaries : BT.601 PAL
Transfer characteristics : BT.470 System B/G
Matrix coefficients : BT.470 System B/G

Audio
ID : 2
Format : AC-3
Format/Info : Audio Coding 3
Commercial name : Dolby Digital
Codec ID : A_AC3
Duration : 34 min 0 s
Bit rate mode : Constant
Bit rate : 192 kb/s
Channel(s) : 2 channels
Channel layout : L R
Sampling rate : 48.0 kHz
Frame rate : 31.250 FPS (1536 SPF)
Compression mode : Lossy
Stream size : 46.7 MiB (7%)
Title : Original
Language : Russian
Service kind : Complete Main
Default : Yes
Forced : No



Скачать ...а шарик летит через торрент https://pic1.kartinco.top/new/img/2021-06/20/lmv0slk1de59efnezhyjmiu6p.png Скачать, смотреть онлайн ...а шарик летит бесплантно в хорошем качестве Описание: Девочка Женя стремится быть лидером среди подростков: она на головокружительной высоте переходит с одной крыши на другую, ничего, ... 10 10 2
Торрент: Зарегистрирован [2021-06-20 17:42] · скачан: 6 раз
Статус: √ проверено
Размер: 635 MB
Как cкачать? Как скачать ...а шарик летит через торрент | UTorrent

28-11-2019 20:33  


Отключить вcю реклaмy на сайте, в т.ч. и в плеере онлайн просмотра!

    Дорогой пользователь! Огромная просьба, поблагодарите релизера, оцените раздачу и оставьте свои комментарий, если Вы скачали ...а шарик летит через торрент бесплатно!!
    Комментировать посты могут только пользователи прошедшие не сложную регистрацию
    Показать сообщения:    


    ...а шарик летит через торрент
    Скачать бесплатно ...а шарик летит
    ...а шарик летит скачать торрент
    ...а шарик летит смотреть онлайн
    Cкачать фильм ...а шарик летит бесплатно
    ...а шарик летит скачать торрент в хорошем качестве
    ...а шарик летит смотреть онлайн бесплатно в хорошем качестве
    Вы не можете начинать темы
    Вы не можете отвечать на сообщения
    Вы не можете редактировать свои сообщения
    Вы не можете удалять свои сообщения
    Вы не можете голосовать в опросах
    Вы не можете прикреплять файлы к сообщениям
    Вы можете скачивать файлы
    ...а шарик летит [1987 г., детский, семейный, приключения, короткометражный, SATRip-AVC] смотреть онлайн, скачать торрент picoco.icu