Присоединяйтесь к нам в Telegram!, здесь всегда актуальный адрес сайта, оперативная поддержка и многое другое!!

>

5.9

iTunes

7.4

iTunes

9.4

1 сезон

1

7.4

2 сезон

7.2

iTunes

7.3

1 сезон

13

6.1

iTunes

8.3

GOG

30

ULTIMATE

pack

9.9

Лицензия

ВАЖНО

ИГРА 18+

pack

7.3

RePack

MK11

7.7

RePack

jed

7.8

RePack

fifa19

8.5

RePack

RDR2

RePack

NEED FOR SPEED™ PAYBACK

5 сезон

9 сезон

Бесстыжие 9 сезон

Все сериалы

все сериалы на PB.wtf

RePack

FAR CRY 5

Anonymous, доброе утро, мы катастрофически не успеваем собрать деньги на оплату серверов, помогите нам пожалуйста 5,10,15р., для нас важна любая помощь . В качестве благодарности мы отключим Вам всю рекламу на сайте (укажите свой ник в строку Ваше имя)!

×
  
Magnet ссылка

Хищники / Endangered Species (М. Дж. Бассетт) [2021, Боевик, триллер, HDRip-AVC] DUB [iTunes] от MediaBit pb.wtf

Хищники через торрент pb.wtf

Размер: 1.12 GB | Добавлен: 5 мес. 8 д. назад | Торрент скачан:139 раз
Смотреть онлайн Хищники | Скачать    Ребята, помогите собрать деньги на оплату серверов!!!

21-06-2021 16:28 Хищники Скачать торрент  


Хищники / Endangered Species
Информация о фильме:
Название: Хищники
Оригинальное название: Endangered Species
Год выхода: 2021
Жанр: Боевик, триллер
Режиссер: М. Дж. Бассетт

В ролях: Ребекка Ромейн, Филип Уинчестер, Майкл Джонстон, Изабель Бассетт, Крис Фишер, Джерри О’Коннелл, Бренда Нгесо, Джордж Гленн Оума, Асим Шарма, Притул Рэйтата

Описание: Обычное сафари в заповеднике Кении превращается в сущий кошмар из-за одной ошибки. Однако нападение носорога становится лишь первым испытанием для мирной американской семьи, которая лишилась транспорта и средств связи, — теперь они остались в диких краях, где помимо хищных животных на охоту выходят не менее опасные браконьеры. Чтобы выжить, о человечности придётся забыть.



Страна: Кения, США
Студия: Blue Sky Films, The Electric Shadow Company, Grindstone Entertainment Group, Hassell Free Production
Продолжительность: 01:41:08
Перевод: Профессиональный (полное дублирование) - iTunes



Информация о файле:
Кодек: AVC
Формат: MKV
Качество: HDRip-AVC
Видео: MPEG-4 AVC, 720x302, 23.976 fps, 1390 kbps
Аудио RU: AAC, 2 ch, 48 kHz, 96 kbps
Аудио EN: AAC, 2 ch, 48 kHz, 96 kbps
Субтитры: English
Навигация по главам: Да

x264 info: frame I:1214 Avg QP:13.41 size: 54506
x264 info: frame P:35730 Avg QP:17.12 size: 16913
x264 info: frame B:108544 Avg QP:21.05 size: 3533
General
Unique ID : 102373727787567323679242376545215903175 (0x4D0476792C70D974CCC4B7127496F5C7)
Complete name : D:uTorrentРипы wolf1245Endangered.Species.2021.DUB.HDRip-AVC.[wolf1245.MediaBit].mkv
Format : Matroska
Format version : Version 4
File size : 1.12 GiB
Duration : 1 h 41 min
Overall bit rate : 1 584 kb/s
Movie name : Endangered.Species.2021.DUB.HDRip-AVC.[wolf1245.MediaBit]
Encoded date : UTC 2021-06-21 16:15:33
Writing application : mkvmerge v58.0.0 ('Supper's Ready') 64-bit
Writing library : libebml v1.4.2 + libmatroska v1.6.4
Video
ID : 1
Format : AVC
Format/Info : Advanced Video Codec
Format profile : High@L4.1
Format settings : CABAC / 14 Ref Frames
Format settings, CABAC : Yes
Format settings, Reference frames : 14 frames
Codec ID : V_MPEG4/ISO/AVC
Duration : 1 h 41 min
Bit rate : 1 390 kb/s
Width : 720 pixels
Height : 302 pixels
Display aspect ratio : 2.40:1
Frame rate mode : Constant
Frame rate : 23.976 (24000/1001) FPS
Color space : YUV
Chroma subsampling : 4:2:0
Bit depth : 8 bits
Scan type : Progressive
Bits/(Pixel*Frame) : 0.267
Stream size : 1 005 MiB (88%)
Title : .[wolf1245.MediaBit]
Writing library : x264 core 157 r2958 57baac4
Encoding settings : cabac=1 / ref=14 / deblock=1:-3:-3 / analyse=0x3:0x133 / me=umh / subme=11 / psy=1 / psy_rd=1.00:0.20 / mixed_ref=1 / me_range=48 / chroma_me=1 / trellis=2 / 8x8dct=1 / cqm=0 / deadzone=21,11 / fast_pskip=1 / chroma_qp_offset=-3 / threads=10 / lookahead_threads=2 / sliced_threads=0 / nr=0 / decimate=1 / interlaced=0 / bluray_compat=0 / constrained_intra=0 / bframes=12 / b_pyramid=2 / b_adapt=2 / b_bias=0 / direct=3 / weightb=1 / open_gop=0 / weightp=2 / keyint=240 / keyint_min=24 / scenecut=40 / intra_refresh=0 / rc_lookahead=60 / rc=2pass / mbtree=1 / bitrate=1390 / ratetol=1.0 / qcomp=0.60 / qpmin=0 / qpmax=69 / qpstep=4 / cplxblur=20.0 / qblur=0.5 / vbv_maxrate=50000 / vbv_bufsize=62500 / nal_hrd=none / filler=0 / ip_ratio=1.40 / aq=3:0.80
Language : English
Default : Yes
Forced : No
Color range : Limited
Color primaries : BT.709
Transfer characteristics : BT.709
Matrix coefficients : BT.709
Audio #1
ID : 2
Format : AAC LC SBR
Format/Info : Advanced Audio Codec Low Complexity with Spectral Band Replication
Commercial name : HE-AAC
Format settings : Implicit
Codec ID : A_AAC-2
Duration : 1 h 41 min
Bit rate : 96.0 kb/s
Channel(s) : 2 channels
Channel layout : L R
Sampling rate : 48.0 kHz
Frame rate : 23.438 FPS (2048 SPF)
Compression mode : Lossy
Stream size : 69.4 MiB (6%)
Title : DUB | (iTunes)
Language : Russian
Default : Yes
Forced : No
Audio #2
ID : 3
Format : AAC LC SBR
Format/Info : Advanced Audio Codec Low Complexity with Spectral Band Replication
Commercial name : HE-AAC
Format settings : Implicit
Codec ID : A_AAC-2
Duration : 1 h 41 min
Bit rate : 96.0 kb/s
Channel(s) : 2 channels
Channel layout : L R
Sampling rate : 48.0 kHz
Frame rate : 23.438 FPS (2048 SPF)
Compression mode : Lossy
Stream size : 69.4 MiB (6%)
Title : Original
Language : English
Default : No
Forced : No
Text #1
ID : 4
Format : UTF-8
Codec ID : S_TEXT/UTF8
Codec ID/Info : UTF-8 Plain Text
Duration : 1 h 31 min
Bit rate : 67 b/s
Count of elements : 1416
Stream size : 45.6 KiB (0%)
Title : Full
Language : English
Default : No
Forced : No
Text #2
ID : 5
Format : UTF-8
Codec ID : S_TEXT/UTF8
Codec ID/Info : UTF-8 Plain Text
Duration : 1 h 33 min
Bit rate : 77 b/s
Count of elements : 1712
Stream size : 53.6 KiB (0%)
Title : SDH
Language : English
Default : No
Forced : No
Menu
00:00:00.000 : :Chapter 01
00:06:56.499 : :Chapter 02
00:12:30.875 : :Chapter 03
00:18:54.258 : :Chapter 04
00:24:41.980 : :Chapter 05
00:32:15.433 : :Chapter 06
00:38:27.722 : :Chapter 07
00:48:03.338 : :Chapter 08
00:52:25.934 : :Chapter 09
00:56:25.590 : :Chapter 10
01:03:48.991 : :Chapter 11
01:08:07.708 : :Chapter 12
01:12:27.092 : :Chapter 13
01:23:06.648 : :Chapter 14
01:27:58.690 : :Chapter 15
01:33:29.937 : :Chapter 16
Релиз от: &
Автор релиза:
pb.wtf



Скачать Хищники через торрент https://i2.imageban.ru/out/2021/06/21/0db31f122ac064d2f279a27d053c9de2.png Скачать, смотреть онлайн Хищники бесплантно в хорошем качестве Описание: Обычное сафари в заповеднике Кении превращается в сущий кошмар из-за одной ошибки. Однако нападение носорога становится лишь ... 7 10 6
Торрент: Зарегистрирован [2021-06-21 16:28] · скачан: 139 раз
Статус: √ проверено
Размер: 1.12 GB
Как cкачать? Как скачать Хищники через торрент | UTorrent

28-11-2019 20:33  

Отключить всю рекламу на сайте

    Дорогой пользователь! Огромная просьба, поблагодарите релизера, оцените раздачу и оставьте свои комментарий, если Вы скачали Хищники через торрент бесплатно!
    Комментировать посты могут только пользователи прошедшие не сложную регистрацию
    Показать сообщения:    

    Хищники через торрент
    Скачать бесплатно Хищники
    Хищники скачать торрент
    Хищники смотреть онлайн
    Cкачать фильм Хищники бесплатно
    Хищники скачать торрент в хорошем качестве
    Хищники смотреть онлайн бесплатно в хорошем качестве


    Вы не можете начинать темы
    Вы не можете отвечать на сообщения
    Вы не можете редактировать свои сообщения
    Вы не можете удалять свои сообщения
    Вы не можете голосовать в опросах
    Вы не можете прикреплять файлы к сообщениям
    Вы можете скачивать файлы