Достать ножи: Стеклянная луковица

MVO

Добыча

Дубляж

Уэнсдэй

1 сезон

Тор

Дубляж

13 клиническая

1 сезон

Жестокая ночь

MVO

Одни из нас

1 сезон

Deluxe

pack

Рекомендуем

30

Пиратка

ВАЖНО

ВАЖНО

Ghostwire

Пиратка

jed

RePack

nioh2

RePack

RDR2

RePack

NEED FOR SPEED™ PAYBACK

RePack

скачать торрент

Кинопоиск HD

Острые козырьки 6 сезон

6 сезон

FAR CRY 6

RePack

скачать торрент

Лицензия

скачать торрент

MVO

1

1 сезон

скачать торрент

1 сезон

скачать торрент

Лицензия

  

Простоквашино / Сезон: 1-3 / Серии: 1-68 из 82 + Спец.выпуск (Михаил Солошенко, Евгения Жиркова, Анна Кузина) [2019-2021, мультфильм, мультсериал, WEB-DL 1080p]

Простоквашино через торрент pb.wtf

Размер: 16.1 GB | Добавлен: 1 год 1 мес. назад | Торрент скачан:16 раз
Смотреть онлайн | Скачать | Поддержите нас   

23-06-2021 05:36 Простоквашино Скачать торрент  

Простоквашино

Год выпуска: 2018-2021
Страна: Россия
Жанр: мультфильм, мультсериал
Продолжительность: ~00:06:30
Перевод: не требуется
субтитры: отсутствуют
Режиссёр: Михаил Солошенко, Евгения Жиркова, Анна Кузина, ...

Роли озвучивали: Антон Табаков, Гарик Сукачев, Иван Охлобыстин, Юлия Меньшова, Андрей Тенетко, Ольга Голованова, Алексей Онежен, Беата Сухова, Лев Кузин, Павел Деревянко
Описание: Казалось, никакие бури внешнего мира не смогут поколебать привычный и размеренный ход деревенской жизни Простоквашино. Время как будто застыло. Все так же каждое утро Матроскин дегустирует свежее молоко, полученное от своей любимицы - коровы Мурки. Все так же Шарик проводит время в окрестных лесах, «фотоохотясь» на редкую дичь. Правда, теперь он научился выкладывать фотографии своей добычи в интернет. И все так же, при каждой возможности, их навещает Дядя Федор. И тогда они весело и дружно проводят время своей мужской компанией. И когда им уже стало казаться, что так будет всегда, внезапно все изменилось с появлением одной маленькой девочки, родной сестры Дяди Фёдора. И имя этой девочки – Вера Павловна.



Качество: WEB-DL 1080p
Формат: MP4
Видео кодек: AVC
Аудио кодек: AAC
Видео: 1920x1080 , 25 fps, ~5120 kbps avg, 0.099 bit/pixel
Аудио: 48 kHz, AAC, 2ch, ~192/256 kbps avg

1 сезон

01. Возвращение в Простоквашино. Часть 1
02. Возвращение в Простоквашино. Часть 2
03. Сезон дождей
04. Диета Матроскина
05. Шарик хочет телефон
06. Чудовище из Простоквашино
07. Ген героя
08. Ненастоящий детектив
09. Мама и Тама
10. Как бы не было зимы
11. Вишневая феерия
12. Неудобные соседи
13. Магазин на лежанке
14. Доброе молоко
15. Гипноз
16. Мамонт из Простоквашино
17. Матроскин блюз
18. Бродячие Термиты
19. Анфиса
20. Маргарита Мегеровна
21. Тайна фиолетового пятна
22. Будьте здоровы!
23. Счастливый рубль
24. Комета
25. Корпоратив
26. Исчезновение коров
27. Все всключено
28. Подмена
29. Лесной дух
30. Доить или не доить

2 сезон

01. Банный день
02. Распорядок дня
03. Мотопочтальон
04. Древесный мститель
05. Экология
06. Сыр
07. Хейтер
08. Перепись населения
09. Папа, не горюй!
10. Снежный лабиринт
11. Бобровый мех
12. Недолетные птицы
13. Как вырастить гения
14. Блинный день
15. Экспедиция
16. Рыбалка
17. Ночные Гости
18. Когда маме не поётся
19. Свидание
20. Тайна старой таблички
21. Поход
22. Сыворотка правды


Спец.выпуск

01. Масленица
02. Грызу, целую!
03. Аленький цветочек
Общее
Полное имя : D:\Простоквашино.2018.WEB-DL 1080p\s01\20. Маргарита Мегеровна.mp4
Формат : MPEG-4
Профиль формата : Base Media
Идентификатор кодека : isom (isom/iso2/avc1/mp41)
Размер файла : 250 Мбайт
Продолжительность : 6 м. 30 с.
Общий поток : 5378 Кбит/сек

Видео
Идентификатор : 1
Формат : AVC
Формат/Информация : Advanced Video Codec
Профиль формата : [email protected]
Настройки формата : CABAC / 4 Ref Frames
Параметр CABAC формата : Да
Параметр RefFrames формата : 4 кадра
Идентификатор кодека : avc1
Идентификатор кодека/Информация : Advanced Video Coding
Продолжительность : 6 м. 29 с.
Битрейт : 5120 Кбит/сек
Ширина : 1920 пикселей
Высота : 1080 пикселей
Соотношение сторон : 16:9
Режим частоты кадров : Постоянный
Частота кадров : 25,000 кадров/сек
Цветовое пространство : YUV
Субдискретизация насыщенности : 4:2:0
Битовая глубина : 8 бит
Тип развёртки : Прогрессивная
Бит/(Пиксели*Кадры) : 0.099
Размер потока : 238 Мбайт (95%)
Библиотека кодирования : x264 core 148
Настройки программы : cabac=1 / ref=3 / deblock=1:0:0 / analyse=0x3:0x113 / me=hex / subme=7 / psy=1 / psy_rd=1.00:0.00 / mixed_ref=1 / me_range=16 / chroma_me=1 / trellis=1 / 8x8dct=1 / cqm=0 / deadzone=21,11 / fast_pskip=1 / chroma_qp_offset=-2 / threads=34 / lookahead_threads=5 / sliced_threads=0 / nr=0 / decimate=1 / interlaced=0 / bluray_compat=0 / constrained_intra=0 / bframes=6 / b_pyramid=2 / b_adapt=1 / b_bias=0 / direct=1 / weightb=1 / open_gop=0 / weightp=2 / keyint=50 / keyint_min=26 / scenecut=0 / intra_refresh=0 / rc_lookahead=40 / rc=2pass / mbtree=1 / bitrate=5120 / ratetol=1.0 / qcomp=0.60 / qpmin=0 / qpmax=69 / qpstep=4 / cplxblur=20.0 / qblur=0.5 / vbv_maxrate=7680 / vbv_bufsize=20480 / nal_hrd=none / filler=0 / ip_ratio=1.40 / aq=1:1.00
Язык : English

Аудио
Идентификатор : 2
Формат : AAC
Формат/Информация : Advanced Audio Codec
Профиль формата : LC
Идентификатор кодека : mp4a-40-2
Продолжительность : 6 м. 30 с.
Вид битрейта : Постоянный
Битрейт : 256 Кбит/сек
Каналы : 2 канала
Расположение каналов : Front: L R
Частота : 48,0 КГц
Частота кадров : 46,875 кадров/сек (1024 SPF)
Метод сжатия : С потерями
Размер потока : 11,9 Мбайт (5%)
Язык : English
Default : Да
AlternateGroup/String : 1



Скачать Простоквашино через торрент https://i115.fastpic.ru/big/2021/0622/2c/b629dacb883a318cf8c847b510492e2c.jpg Скачать, смотреть онлайн Простоквашино бесплантно в хорошем качестве Описание: Казалось, никакие бури внешнего мира не смогут поколебать привычный и размеренный ход деревенской жизни Простоквашино. Время как ... 7.5 10 11
Торрент: Зарегистрирован [2022-01-04 20:14] · скачан: 16 раз
Статус: √ проверено
Размер: 16.1 GB
Как cкачать? Как скачать Простоквашино через торрент | UTorrent




Последний раз редактировалось: killermax2013 (2022-01-04 20:14), всего редактировалось 3 раз(а)

28-11-2019 20:33  


Отключить вcю реклaмy на сайте, в т.ч. и в плеере онлайн просмотра!

24-06-2021 04:13 Простоквашино Скачать торрент  

убожественное продолжение, испохабили классику



12-10-2021 10:14 Простоквашино Скачать торрент  

Простоугашенные...



    Дорогой пользователь! Огромная просьба, поблагодарите релизера, оцените раздачу и оставьте свои комментарий, если Вы скачали Простоквашино через торрент бесплатно!!
    Комментировать посты могут только пользователи прошедшие не сложную регистрацию
    Показать сообщения:    


    Простоквашино через торрент
    Скачать бесплатно Простоквашино
    Простоквашино скачать торрент
    Простоквашино смотреть онлайн
    Cкачать фильм Простоквашино бесплатно
    Простоквашино скачать торрент в хорошем качестве
    Простоквашино смотреть онлайн бесплатно в хорошем качестве
    Вы не можете начинать темы
    Вы не можете отвечать на сообщения
    Вы не можете редактировать свои сообщения
    Вы не можете удалять свои сообщения
    Вы не можете голосовать в опросах
    Вы не можете прикреплять файлы к сообщениям
    Вы можете скачивать файлы
    Простоквашино / Сезон: 1-3 / Серии: 1-68 из 82 + Спец.выпуск [2019-2021, мультфильм, мультсериал, WEB-DL 1080p] смотреть онлайн, скачать торрент picoco.icu