Anonymous, доброй ночи, присоединяйтесь к нам в Telegram!, здесь всегда актуальный адрес сайта, оперативная поддержка и многое другое!

>

5.6

iTunes

7.4

iTunes

7.9

MVO

1

7.7

1 сезон

6.8

iTunes

7.3

1 сезон

13

6.7

1 сезон

8.3

RePack

30

PREMIUM

pack

9.9

Лицензия

ВАЖНО

ИГРА 18+

pack

7.3

RePack

MK11

7.7

RePack

jed

7.8

RePack

fifa19

8.5

RePack

RDR2

RePack

NEED FOR SPEED™ PAYBACK

4 сезон

9 сезон

Бесстыжие 9 сезон

Все сериалы

все сериалы на PB.wtf

RePack

FAR CRY 5

Anonymous, доброй ночи, мы катастрофически не успеваем собрать деньги на оплату серверов, помогите нам пожалуйста 5,10,15р., для нас важна любая помощь . В качестве благодарности мы отключим Вам всю рекламу на сайте (укажите свой ник в строку Ваше имя)!

×
  
Magnet ссылка

Любовь в жаркие недели / Сезон: 1 / Серии: 1-10 из 10 (Гайк Асатрян) [2021, Комедия, WEBRip 720p] pb.wtf

Любовь в жаркие недели через торрент pb.wtf

Раздают: 3 [ 0 KB/s ]
Размер: 2.85 GB | Добавлен: 3 мес. 14 д. назад | Торрент скачан:67 раз
Смотреть онлайн Любовь в жаркие недели | Скачать    Ребята, помогите собрать деньги на оплату серверов!!!

28-06-2021 06:43 Любовь в жаркие недели Скачать торрент  

Любовь в жаркие недели
Год выпуска: 2021
Страна: Россия
Студия: ООО «К.Б.А.»
Жанр: Комедия
Продолжительность: ~ 00:13:00
Перевод: Не требуется
Субтитры: отсутствуют

Режиссер: Гайк Асатрян



В ролях: Зоя Бербер, Роман Попов, Елизавета Моряк, Олег Верещагин, Маруся Климова, Ольга Хохлова, Гарик Петросян

Описание: Продолжение историй героев сериала «Любовь в рабочие недели». Сразу после открытия границ три супружеские пары оказываются в соседних номерах шикарного отеля в Турции. Андрей и Кристина празднуют медовый месяц, Ира и Валера пытаются зачать малыша, а Гарик и Соня отдыхают с ребенком и тещей-авантюристкой, которая приносит немало проблем. В эти жаркие дни героев настигают неожиданные приключения, семейные неурядицы и неподдельное счастье!

Качество: WEBRip 720p
Формат: MKV

Видео: MPEG-4 AVC, 1280x544, ~ 3000 Кбит/с, 0.168 bit/pixel, 25 Кадр/с
Аудио: 48.0 kHz, AC3 Dolby Digital, 2/0 (L,R) ch, ~ 192 kbps
скриншот  скриншот  скриншот  скриншот  

Общее
Уникальный идентификатор : 324029320553567839281470642791645234013 (0xF3C5C6F214A19B16C65C08E23640C35D)
Полное имя : D:Lyubov.v.zharkie.nedeli.2021.WEB-DL.720p1.Lyubov.v.zharkie.nedeli.2021.WEB-DL.720p.mkv
Формат : Matroska
Версия формата : Version 4
Размер файла : 271 Мбайт
Продолжительность : 12 м. 10 с.
Режим общего битрейта : Переменный
Общий поток : 3 117 Кбит/сек
Название фильма : 01.Lyubov.v.zharkie.nedeli.2021.WEB-DL.720p
Дата кодирования : UTC 2021-06-28 02:30:45
Программа кодирования : mkvmerge v58.0.0 ('Supper's Ready') 64-bit
Библиотека кодирования : libebml v1.4.2 + libmatroska v1.6.4
Attachments : poster.jpg

Видео
Идентификатор : 1
Формат : AVC
Формат/Информация : Advanced Video Codec
Профиль формата : High@L3.1
Настройки формата : CABAC / 1 Ref Frames
Параметр CABAC формата : Да
Параметр RefFrames формата : 1 кадр
Параметр GOP формата : M=1, N=50
Идентификатор кодека : V_MPEG4/ISO/AVC
Продолжительность : 12 м. 10 с.
Вид битрейта : Переменный
Битрейт : 2 922 Кбит/сек
Максимальный битрейт : 3 000 Кбит/сек
Ширина : 1 280 пикселей
Высота : 544 пикселя
Соотношение сторон : 2,35:1
Режим частоты кадров : Постоянный
Частота кадров : 25,000 кадров/сек
Цветовое пространство : YUV
Субдискретизация насыщенности : 4:2:0
Битовая глубина : 8 бит
Тип развёртки : Прогрессивная
Бит/(Пиксели*Кадры) : 0.168
Размер потока : 254 Мбайт (94%)
Default : Да
Forced : Нет

Аудио
Идентификатор : 2
Формат : AC-3
Формат/Информация : Audio Coding 3
Коммерческое название : Dolby Digital
Идентификатор кодека : A_AC3
Продолжительность : 12 м. 10 с.
Вид битрейта : Постоянный
Битрейт : 192 Кбит/сек
Каналы : 2 канала
Channel layout : L R
Частота : 48,0 КГц
Частота кадров : 31,250 кадров/сек (1536 SPF)
Метод сжатия : С потерями
Размер потока : 16,7 Мбайт (6%)
Service kind : Complete Main
Default : Да
Forced : Нет

Внимание! Раздача ведётся путём добавления новых серий; при каждом добавлении создаётся новый торрент. Чтобы начать докачку новой серии, пользователям необходимо сделать следующее:
(1) остановить скачивание,
(2) удалить старый торрент у себя из клиента (старые серии удалять не надо),
(3) скачать новый торрент и запустить его у себя в клиенте вместо старого, при этом указать клиенту путь в старую папку куда и должно происходить скачивание новых серий.

Ваш клиент при этом должен произвести хеширование (проверку) старой папки (если не производит сам - помогите ему сделать это), и будет докачивать только те серии которых у вас ещё нет. Старые серии при этом не удаляются, а продолжают раздаваться!

Eсли вы уже удалили старые серии, то предотвратить повторную закачку старых серий можно, отжав галочку в соответствующих местах при запуске нового торрента. По возможности, желательно не удалять старые серии как можно дольше чтобы релизёр не столько продолжал раздавать старые серии, а смог сконцентрироваться на новых.
pb.wtf



Скачать Любовь в жаркие недели через торрент https://a.radikal.ru/a09/2106/a5/b00981df9e8f.jpg Скачать, смотреть онлайн Любовь в жаркие недели бесплантно в хорошем качестве Описание: Продолжение историй героев сериала «Любовь в рабочие недели». Сразу после открытия границ три супружеские пары оказываются в ... 10 10 7
Торрент: Зарегистрирован [2021-07-07 03:09] · скачан: 67 раз
Статус: √ проверено
Размер: 2.85 GB
Как cкачать? Как скачать Любовь в жаркие недели через торрент | UTorrent

% Раздел Тема Автор DL S | L
TNT serials [ 1.63 GB ] Любовь в жаркие недели / Сезон: 1 / Серии: 1-10 из 10 [2021 WEBRip-AVC] bober100 Скачать
1 | 0
TNT serials [ 1.64 GB ] Любовь в жаркие недели / Сезон: 1 / Серии: 1-10 из 10 [2021 WEBRip] bober100 Скачать
2 | 0
TNT serials [ 4.2 GB ] Любовь в жаркие недели / Сезон: 1 / Серии: 1-10 из 10 [2021 WEBRip 1080p] bober100 Скачать
2 | 0

28-11-2019 20:33  

Отключить всю рекламу на сайте

    Дорогой пользователь! Огромная просьба, поблагодарите релизера, оцените раздачу и оставьте свои комментарий, если Вы скачали Любовь в жаркие недели через торрент бесплатно!
    Комментировать посты могут только пользователи прошедшие не сложную регистрацию
    Показать сообщения:    

    Любовь в жаркие недели через торрент
    Скачать бесплатно Любовь в жаркие недели
    Любовь в жаркие недели скачать торрент
    Любовь в жаркие недели смотреть онлайн
    Cкачать фильм Любовь в жаркие недели бесплатно
    Любовь в жаркие недели скачать торрент в хорошем качестве
    Любовь в жаркие недели смотреть онлайн бесплатно в хорошем качестве


    Вы не можете начинать темы
    Вы не можете отвечать на сообщения
    Вы не можете редактировать свои сообщения
    Вы не можете удалять свои сообщения
    Вы не можете голосовать в опросах
    Вы не можете прикреплять файлы к сообщениям
    Вы можете скачивать файлы