1 сезон

3 сезон

iTunes

1

Line

MVO

iTunes

13

1 сезон

RePack

30

Deluxe

pack

Лицензия

ВАЖНО

ИГРА 18+

pack

RePack

MK11

RePack

jed

RePack

fifa19

RePack

RDR2

RePack

NEED FOR SPEED™ PAYBACK

4 сезон

9 сезон

Бесстыжие 9 сезон

Все сериалы

все сериалы на PB.wtf

RePack

FAR CRY 5

Anonymous, доброй ночи, мы катастрофически не успеваем собрать деньги на оплату серверов, помогите нам пожалуйста 5,10,15р., для нас важна любая помощь . В качестве благодарности мы отключим Вам всю рекламу на сайте (укажите свой ник в строку Ваше имя)!

×
  
Magnet ссылка

Любовь в жаркие недели / Сезон: 1 / Серии: 1-10 из 10 (Гайк Асатрян) [2021, Комедия, WEBRip-AVC] pb.wtf

Любовь в жаркие недели через торрент pb.wtf

Раздают: 3 [ 0 KB/s ]
Размер: 1.63 GB | Добавлен: 8 д. назад | Торрент скачан:23 раза
Скачать  

28-06-2021 13:13 Любовь в жаркие недели Скачать торрент  

Любовь в жаркие недели
Год выпуска: 2021
Страна: Россия
Студия: Кинокомпания ООО «К.Б.А.»
Жанр: Комедия
Продолжительность: ~ 00:13:00
Перевод: Не требуется
Субтитры: отсутствуют

Режиссер: Гайк Асатрян



В ролях: Зоя Бербер, Роман Попов, Елизавета Моряк, Олег Верещагин, Маруся Климова, Ольга Хохлова, Гарик Петросян

Описание: Продолжение историй героев сериала «Любовь в рабочие недели». Сразу после открытия границ три супружеские пары оказываются в соседних номерах шикарного отеля в Турции. Андрей и Кристина празднуют медовый месяц, Ира и Валера пытаются зачать малыша, а Гарик и Соня отдыхают с ребенком и тещей-авантюристкой, которая приносит немало проблем. В эти жаркие дни героев настигают неожиданные приключения, семейные неурядицы и неподдельное счастье!

Качество: WEBRip-AVC
Формат: MKV

Видео: MPEG-4 AVC, ~ 1600 Кбит/с, 1024x432, 25 кадр/с
Аудио: 48.0 kHz, AC3 Dolby Digital, 2/0 (L,R) ch, ~ 192 kbps
скриншот  скриншот  скриншот  скриншот  

General
Unique ID : 200384473767561670918510626980658209482 (0x96C0A555E56FC4AFB5C1C528A334E2CA)
Complete name : F:\Любовь в жаркие недели.(2021).WEBRip.(AVC).Files-x\01.Lyubov.v.zharkie.nedeli.(2021).WEBRip.(AVC).by.Серый1779.Files-x.mkv
Format : Matroska
Format version : Version 2
File size : 156 MiB
Duration : 12 min 10 s
Overall bit rate : 1 786 kb/s
Encoded date : UTC 2021-06-28 09:22:30
Writing application : mkvmerge v7.8.0 ('River Man') 32bit built on Apr 3 2015 12:11:22
Writing library : libebml v1.3.1 + libmatroska v1.4.2

Video
ID : 1
Format : AVC
Format/Info : Advanced Video Codec
Format profile : High@L4.1
Format settings : CABAC / 9 Ref Frames
Format settings, CABAC : Yes
Format settings, RefFrames : 9 frames
Codec ID : V_MPEG4/ISO/AVC
Duration : 12 min 10 s
Bit rate : 1 600 kb/s
Width : 1 024 pixels
Height : 432 pixels
Display aspect ratio : 2.40:1
Frame rate mode : Constant
Frame rate : 25.000 FPS
Color space : YUV
Chroma subsampling : 4:2:0
Bit depth : 8 bits
Scan type : Progressive
Bits/(Pixel*Frame) : 0.145
Stream size : 136 MiB (87%)
Writing library : x264 core 146 r2538 121396c
Encoding settings : cabac=1 / ref=9 / deblock=1:-2:-1 / analyse=0x3:0x133 / me=umh / subme=9 / psy=1 / psy_rd=1.00:0.15 / mixed_ref=1 / me_range=32 / chroma_me=1 / trellis=2 / 8x8dct=1 / cqm=0 / deadzone=21,11 / fast_pskip=0 / chroma_qp_offset=-3 / threads=18 / lookahead_threads=3 / sliced_threads=0 / nr=0 / decimate=1 / interlaced=0 / bluray_compat=0 / constrained_intra=0 / bframes=9 / b_pyramid=2 / b_adapt=2 / b_bias=0 / direct=1 / weightb=1 / open_gop=0 / weightp=2 / keyint=250 / keyint_min=25 / scenecut=40 / intra_refresh=0 / rc=2pass / mbtree=0 / bitrate=1600 / ratetol=1.0 / qcomp=0.60 / qpmin=0 / qpmax=69 / qpstep=4 / cplxblur=20.0 / qblur=0.5 / ip_ratio=1.40 / pb_ratio=1.30 / aq=2:1.00
Default : Yes
Forced : No
Color range : Limited
Color primaries : BT.709
Transfer characteristics : BT.709
Matrix coefficients : BT.709

Audio
ID : 2
Format : AC-3
Format/Info : Audio Coding 3
Format settings, Endianness : Big
Codec ID : A_AC3
Duration : 12 min 10 s
Bit rate mode : Constant
Bit rate : 192 kb/s
Channel(s) : 2 channels
Channel positions : Front: L R
Sampling rate : 48.0 kHz
Frame rate : 31.250 FPS (1536 SPF)
Bit depth : 16 bits
Compression mode : Lossy
Stream size : 16.7 MiB (11%)
Service kind : Complete Main
Default : Yes
Forced : No

Внимание! Раздача ведётся путём добавления новых серий; при каждом добавлении создаётся новый торрент. Чтобы начать докачку новой серии, пользователям необходимо сделать следующее:
(1) остановить скачивание,
(2) удалить старый торрент у себя из клиента (старые серии удалять не надо),
(3) скачать новый торрент и запустить его у себя в клиенте вместо старого, при этом указать клиенту путь в старую папку куда и должно происходить скачивание новых серий.

Ваш клиент при этом должен произвести хеширование (проверку) старой папки (если не производит сам - помогите ему сделать это), и будет докачивать только те серии которых у вас ещё нет. Старые серии при этом не удаляются, а продолжают раздаваться!

Eсли вы уже удалили старые серии, то предотвратить повторную закачку старых серий можно, отжав галочку в соответствующих местах при запуске нового торрента. По возможности, желательно не удалять старые серии как можно дольше чтобы релизёр не столько продолжал раздавать старые серии, а смог сконцентрироваться на новых.
pb.wtf



Скачать Любовь в жаркие недели через торрент https://a.radikal.ru/a09/2106/a5/b00981df9e8f.jpg Скачать фильм Любовь в жаркие недели через торрент бесплантно в хорошем качестве Описание: Продолжение историй героев сериала «Любовь в рабочие недели». Сразу после открытия границ три супружеские пары оказываются в ... 10 10 5
Торрент: Зарегистрирован [2021-07-21 14:54] · скачан: 23 раз
Статус: √ проверено
Размер: 1.63 GB
Как cкачать? Как скачать Любовь в жаркие недели через торрент | UTorrent

% Раздел Тема Автор DL S | L
TNT serials [ 1.64 GB ] Любовь в жаркие недели / Сезон: 1 / Серии: 1-10 из 10 [2021 WEBRip] bober100 Скачать
3 | 0
TNT serials [ 2.85 GB ] Любовь в жаркие недели / Сезон: 1 / Серии: 1-10 из 10 [2021 WEBRip 720p] bober100 Скачать
1 | 1
TNT serials [ 4.2 GB ] Любовь в жаркие недели / Сезон: 1 / Серии: 1-10 из 10 [2021 WEBRip 1080p] bober100 Скачать
4 | 0


Последний раз редактировалось: bober100 (2021-07-21 14:54), всего редактировалось 1 раз

28-11-2019 20:33  

Отключить всю рекламу на сайте

01-07-2021 15:00 Любовь в жаркие недели Скачать торрент  

опять Сарик...pb.wtf



    Дорогой пользователь! Огромная просьба, поблагодарите релизера, оцените раздачу и оставьте свои комментарий, если Вы скачали Любовь в жаркие недели через торрент бесплатно! Внесите свою лепту в развитие PiratBit!
    Комментировать посты могут только пользователи прошедшие не сложную регистрацию
    Показать сообщения:    

    Любовь в жаркие недели через торрент
    Скачать бесплатно Любовь в жаркие недели
    Любовь в жаркие недели скачать торрент
    Любовь в жаркие недели смотреть онлайн
    Cкачать фильм Любовь в жаркие недели бесплатно
    Любовь в жаркие недели скачать торрент в хорошем качестве
    Любовь в жаркие недели смотреть онлайн бесплатно в хорошем качестве


    Вы не можете начинать темы
    Вы не можете отвечать на сообщения
    Вы не можете редактировать свои сообщения
    Вы не можете удалять свои сообщения
    Вы не можете голосовать в опросах
    Вы не можете прикреплять файлы к сообщениям
    Вы можете скачивать файлы