Присоединяйтесь к нам в Telegram!, здесь всегда актуальный адрес сайта, оперативная поддержка и многое другое!!

>

5.9

iTunes

7.4

iTunes

9.4

1 сезон

1

7.4

2 сезон

7.2

iTunes

7.3

1 сезон

13

6.1

iTunes

8.3

GOG

30

ULTIMATE

pack

9.9

Лицензия

ВАЖНО

ИГРА 18+

pack

7.3

RePack

MK11

7.7

RePack

jed

7.8

RePack

fifa19

8.5

RePack

RDR2

RePack

NEED FOR SPEED™ PAYBACK

5 сезон

9 сезон

Бесстыжие 9 сезон

Все сериалы

все сериалы на PB.wtf

RePack

FAR CRY 5

Anonymous, доброе утро, мы катастрофически не успеваем собрать деньги на оплату серверов, помогите нам пожалуйста 5,10,15р., для нас важна любая помощь . В качестве благодарности мы отключим Вам всю рекламу на сайте (укажите свой ник в строку Ваше имя)!

×
  
Magnet ссылка

Тихое место 2 / A Quiet Place Part II (Джон Красински) [2021, ужасы, фантастика, триллер, драма, WEB-DLRip-AVC] DUB [iTunes] от MediaBit pb.wtf

Тихое место 2 через торрент pb.wtf

Размер: 2.06 GB | Добавлен: 4 мес. 21 д. назад | Торрент скачан:255 раз
Смотреть онлайн Тихое место 2 | Скачать    Ребята, помогите собрать деньги на оплату серверов!!!

29-06-2021 19:16 Тихое место 2 Скачать торрент  


Тихое место 2 / A Quiet Place Part II
Информация о фильме:
Название: Тихое место 2
Оригинальное название: A Quiet Place Part II
Год выхода: 2021
Жанр: ужасы, фантастика, триллер, драма
Режиссер: Джон Красински
В ролях: Эмили Блант, Джон Красински, Милли Симмондс, Ноа Джуп, Киллиан Мёрфи, Джимон Хонсу, Окьерете Онаодован, Скут МакНэри, Захари Голингер, Блейк ДеЛонг

Описание: Семья Эбботт продолжает бороться за жизнь в полной тишине. Вслед за смертельной угрозой, с которой они столкнулись в собственном доме, им предстоит познать ужасы внешнего мира. Они вынуждены отправиться в неизвестность, где быстро обнаруживают, что существа, охотящиеся на звук, — не единственные враги за пределами безопасной песчаной тропы.



Страна: США
Студия: Buffalo FilmWorks, Paramount Pictures, Platinum Dunes
Продолжительность: 01:37:01
Перевод: Дублированный - iTunes



Информация о файле:
Кодек: AVC
Формат: MKV
Качество: WEB-DLRip-AVC
Видео: MPEG-4 AVC, 1024x428, 23.976 fps, 2206 kbps
Аудио RU: AC3, 2 ch, 48 kHz, 384 kbps
Аудио EN: AC3, 6 ch, 48 kHz, 448 kbps
Субтитры: Русские (Forced, full), украинские (Full), английские
Навигация по главам: Да

x264 info: frame I:858 Avg QP:14.41 size: 76612
x264 info: frame P:30870 Avg QP:18.10 size: 27059
x264 info: frame B:107841 Avg QP:21.52 size: 6519
x264 info: consecutive B-frames: 1.6% 2.9% 6.2% 32.4% 15.3% 28.6% 8.7% 1.5% 1.1% 0.5% 0.1% 0.4% 0.5%
General
Unique ID : 77546406728196917439780042610250837742 (0x3A56E509BB5C271FFD6DF04209476EEE)
Complete name : D:uTorrentРипы wolf1245Tixoje.Mesto2.2021.DUB.WEB-DLRip-AVC.[wolf1245.MediaBit].mkv
Format : Matroska
Format version : Version 4
File size : 2.06 GiB
Duration : 1 h 37 min
Overall bit rate : 3 038 kb/s
Movie name : Tixoje.Mesto2.2021.DUB.WEB-DLRip-AVC.[wolf1245.MediaBit]
Encoded date : UTC 2021-07-08 18:02:16
Writing application : mkvmerge v58.0.0 ('Supper's Ready') 64-bit
Writing library : libebml v1.4.2 + libmatroska v1.6.4
Video
ID : 1
Format : AVC
Format/Info : Advanced Video Codec
Format profile : High@L4.1
Format settings : CABAC / 14 Ref Frames
Format settings, CABAC : Yes
Format settings, Reference frames : 14 frames
Codec ID : V_MPEG4/ISO/AVC
Duration : 1 h 37 min
Bit rate : 2 206 kb/s
Width : 1 024 pixels
Height : 428 pixels
Display aspect ratio : 2.40:1
Frame rate mode : Constant
Frame rate : 23.976 (24000/1001) FPS
Color space : YUV
Chroma subsampling : 4:2:0
Bit depth : 8 bits
Scan type : Progressive
Bits/(Pixel*Frame) : 0.210
Stream size : 1.49 GiB (73%)
Title : .[wolf1245.MediaBit]
Writing library : x264 core 157 r2958 57baac4
Encoding settings : cabac=1 / ref=14 / deblock=1:-3:-3 / analyse=0x3:0x133 / me=umh / subme=11 / psy=1 / psy_rd=1.00:0.05 / mixed_ref=1 / me_range=48 / chroma_me=1 / trellis=2 / 8x8dct=1 / cqm=0 / deadzone=21,11 / fast_pskip=1 / chroma_qp_offset=-3 / threads=10 / lookahead_threads=2 / sliced_threads=0 / nr=0 / decimate=1 / interlaced=0 / bluray_compat=0 / constrained_intra=0 / bframes=12 / b_pyramid=2 / b_adapt=2 / b_bias=0 / direct=3 / weightb=1 / open_gop=0 / weightp=2 / keyint=240 / keyint_min=24 / scenecut=40 / intra_refresh=0 / rc_lookahead=60 / rc=2pass / mbtree=1 / bitrate=2206 / ratetol=1.0 / qcomp=0.60 / qpmin=0 / qpmax=69 / qpstep=4 / cplxblur=20.0 / qblur=0.5 / vbv_maxrate=50000 / vbv_bufsize=62500 / nal_hrd=none / filler=0 / ip_ratio=1.40 / aq=1:0.80
Language : English
Default : Yes
Forced : No
Color range : Limited
Color primaries : BT.709
Transfer characteristics : BT.709
Matrix coefficients : BT.709
Audio #1
ID : 2
Format : AC-3
Format/Info : Audio Coding 3
Commercial name : Dolby Digital
Codec ID : A_AC3
Duration : 1 h 37 min
Bit rate mode : Constant
Bit rate : 384 kb/s
Channel(s) : 6 channels
Channel layout : L R C LFE Ls Rs
Sampling rate : 48.0 kHz
Frame rate : 31.250 FPS (1536 SPF)
Bit depth : 16 bits
Compression mode : Lossy
Stream size : 266 MiB (13%)
Title : DUB | iTunes
Language : Russian
Service kind : Complete Main
Default : Yes
Forced : No
Audio #2
ID : 3
Format : AC-3
Format/Info : Audio Coding 3
Commercial name : Dolby Digital
Codec ID : A_AC3
Duration : 1 h 37 min
Bit rate mode : Constant
Bit rate : 448 kb/s
Channel(s) : 6 channels
Channel layout : L R C LFE Ls Rs
Sampling rate : 48.0 kHz
Frame rate : 31.250 FPS (1536 SPF)
Bit depth : 16 bits
Compression mode : Lossy
Stream size : 311 MiB (15%)
Title : Original
Language : English
Service kind : Complete Main
Default : No
Forced : No
Text #1
ID : 4
Format : UTF-8
Codec ID : S_TEXT/UTF8
Codec ID/Info : UTF-8 Plain Text
Duration : 1 h 35 min
Bit rate : 3 b/s
Count of elements : 78
Stream size : 2.26 KiB (0%)
Title : Forced
Language : Russian
Default : Yes
Forced : Yes
Text #2
ID : 5
Format : UTF-8
Codec ID : S_TEXT/UTF8
Codec ID/Info : UTF-8 Plain Text
Duration : 1 h 35 min
Bit rate : 17 b/s
Count of elements : 331
Stream size : 12.4 KiB (0%)
Title : Full
Language : Russian
Default : No
Forced : No
Text #3
ID : 6
Format : UTF-8
Codec ID : S_TEXT/UTF8
Codec ID/Info : UTF-8 Plain Text
Duration : 1 h 35 min
Bit rate : 17 b/s
Count of elements : 339
Stream size : 12.4 KiB (0%)
Title : Full
Language : Ukrainian
Default : No
Forced : No
Text #4
ID : 7
Format : UTF-8
Codec ID : S_TEXT/UTF8
Codec ID/Info : UTF-8 Plain Text
Duration : 47 min 28 s
Bit rate : 3 b/s
Count of elements : 69
Stream size : 1.26 KiB (0%)
Title : Forced
Language : English
Default : No
Forced : No
Text #5
ID : 8
Format : UTF-8
Codec ID : S_TEXT/UTF8
Codec ID/Info : UTF-8 Plain Text
Duration : 1 h 26 min
Bit rate : 18 b/s
Count of elements : 563
Stream size : 11.9 KiB (0%)
Title : SDH
Language : English
Default : No
Forced : No
Menu
00:00:00.000 : :Scene 1
00:06:39.107 : :Scene 2
00:12:16.319 : :Scene 3
00:17:00.270 : :Scene 4
00:26:28.171 : :Scene 5
00:33:26.339 : :Scene 6
00:38:06.703 : :Scene 7
00:45:53.753 : :Scene 8
00:51:18.036 : :Scene 9
00:55:35.919 : :Scene 10
01:02:21.282 : :Scene 11
01:08:43.832 : :Scene 12
01:16:31.925 : :Scene 13
01:21:25.885 : :Scene 14
01:28:11.833 : :Scene 15
Релиз от: &
Автор релиза:
pb.wtf



Скачать Тихое место 2 через торрент https://i115.fastpic.ru/big/2021/0708/ec/c1eec3403a425d7079a3aa163cae79ec.jpg Скачать, смотреть онлайн Тихое место 2 бесплантно в хорошем качестве Описание: Семья Эбботт продолжает бороться за жизнь в полной тишине. Вслед за смертельной угрозой, с которой они столкнулись в ... 10 10 9
Торрент: Зарегистрирован [2021-07-08 18:15] · скачан: 255 раз
Статус: √ проверено
Размер: 2.06 GB
Как cкачать? Как скачать Тихое место 2 через торрент | UTorrent



Последний раз редактировалось: Lithuania (2021-07-08 18:15), всего редактировалось 1 раз

28-11-2019 20:33  

Отключить всю рекламу на сайте

29-06-2021 21:27 Тихое место 2 Скачать торрент  

Что то все выкладывают, а субтитров нет. Жестовые языки (Немой) не понимаюpb.wtf



08-07-2021 18:16 Тихое место 2 Скачать торрент  

kostaXcs писал(а):

Что то все выкладывают, а субтитров нет. Жестовые языки (Немой) не понимаю

всё естьpb.wtf



    Дорогой пользователь! Огромная просьба, поблагодарите релизера, оцените раздачу и оставьте свои комментарий, если Вы скачали Тихое место 2 через торрент бесплатно!
    Комментировать посты могут только пользователи прошедшие не сложную регистрацию
    Показать сообщения:    

    Тихое место 2 через торрент
    Скачать бесплатно Тихое место 2
    Тихое место 2 скачать торрент
    Тихое место 2 смотреть онлайн
    Cкачать фильм Тихое место 2 бесплатно
    Тихое место 2 скачать торрент в хорошем качестве
    Тихое место 2 смотреть онлайн бесплатно в хорошем качестве


    Вы не можете начинать темы
    Вы не можете отвечать на сообщения
    Вы не можете редактировать свои сообщения
    Вы не можете удалять свои сообщения
    Вы не можете голосовать в опросах
    Вы не можете прикреплять файлы к сообщениям
    Вы можете скачивать файлы