1 сезон

3 сезон

iTunes

1

Line

MVO

iTunes

13

1 сезон

RePack

30

Deluxe

pack

Лицензия

ВАЖНО

ИГРА 18+

pack

RePack

MK11

RePack

jed

RePack

fifa19

RePack

RDR2

RePack

NEED FOR SPEED™ PAYBACK

4 сезон

9 сезон

Бесстыжие 9 сезон

Все сериалы

все сериалы на PB.wtf

RePack

FAR CRY 5

Anonymous, доброе утро, мы катастрофически не успеваем собрать деньги на оплату серверов, помогите нам пожалуйста 5,10,15р., для нас важна любая помощь . В качестве благодарности мы отключим Вам всю рекламу на сайте (укажите свой ник в строку Ваше имя)!

×
  
Magnet ссылка

Похититель костей / The Bone Snatcher (Джейсон Вулфсон) [2003 г., ужасы, фантастика, триллер, детектив, DVD5] MVO pb.wtf

Похититель костей через торрент pb.wtf

Размер: 3.99 GB | Добавлен: 1 мес. 1 д. назад | Торрент скачан:5 раз
Скачать  

30-06-2021 15:42 Похититель костей Скачать торрент  

Похититель костей / The Bone Snatcher
Год выпуска: 2003
Страна: Канада, Великобритания, ЮАР
Жанр: Ужасы, фантастика, триллер, детектив
Продолжительность: 01:26:16
Перевод: Профессиональный (многоголосый)
Субтитры: Отсутствуют

Режиссер: Джейсон Вулфсон

rating

В ролях: Скотт Бэйрстоу, Рэйчел Шелли, Уоррик Грир, Патрик Шай, Андре Уэйдеман, Адриенн Пирс, Патрик Листер

Описание: В южноафриканской пустыне Намибии таинственным образом исчезла группа из нескольких человек. Из Канады приезжает учёный Зак Стрэкер, который должен отправиться на поиски пропавших вместе с отрядом спецназовцев. Поиски подтвердили факт случившейся трагедии. Однако, хотя тела пропавших нашли, их в то же время как бы и не нашли. Потому что найдены были лишь кучки костей, остатки скелетов, без единого признака человеческой плоти на них. Отряд спецназовцев начал продвигаться в глубь пустыни, но чем дальше бойцы шли, тем быстрее росло число трупов, и от всех погибших оставались одни лишь только кости...
Качество: DVD5
Формат: DVD Video
Видео: 720x576, MPEG 2, 5 895 Кбит/сек
Аудио: Русский, AC3, 2 ch, 448 Кбит/сек
Видео
Идентификатор : 224 (0xE0)
Формат : MPEG Video
Версия формата : Version 2
Профиль формата : Main@Main
Настройки формата : BVOP
Параметр BVOP формата : Да
Параметр матрицы формата : По умолчанию
Параметр GOP формата : M=3, N=13
Структура изображения : Frame
Продолжительность : 22 м. 6 с.
Вид битрейта : Переменный
Битрейт : 5 895 Кбит/сек
Максимальный битрейт : 8 500 Кбит/сек
Ширина : 720 пикселей
Высота : 576 пикселей
Соотношение сторон : 4:3
Частота кадров : 25,000 кадров/сек
Стандарт вещания : PAL
Цветовое пространство : YUV
Субдискретизация насыщенности : 4:2:0
Битовая глубина : 8 бит
Тип развёртки : Чересстрочная
Порядок развёртки : Верхнее поле первое
Метод сжатия : С потерями
Бит/(Пиксели*Кадры) : 0.569
Временной код первого кадра : 01:21:42:02
Оригинал временного кода : Group of pictures header
GOP, открыто/закрыто : Открыто
Размер потока : 933 Мбайт (91%)
Основные цвета : BT.601 PAL
Характеристики трансфера : BT.470 System B/G
Коэффициенты матрицы : BT.470 System B/G

Аудио
Идентификатор : 189 (0xBD)-128 (0x80)
Формат : AC-3
Формат/Информация : Audio Coding 3
Коммерческое название : Dolby Digital
Режим смешивания : DVD-Video
Продолжительность : 22 м. 6 с.
Вид битрейта : Постоянный
Битрейт : 448 Кбит/сек
Каналы : 2 канала
Channel layout : L R
Частота : 48,0 КГц
Частота кадров : 31,250 кадров/сек (1536 SPF)
Метод сжатия : С потерями
Задержка видео : -384 мс.
Размер потока : 70,9 Мбайт (7%)
Service kind : Complete Main

скриншот   скриншот   скриншот   скриншот   скриншот  
pb.wtf



Скачать Похититель костей через торрент https://pic1.kartinco.top/new/img/2021-06/30/5ag85kahxy64lja0tsxls5t1b.jpg Скачать фильм Похититель костей через торрент бесплантно в хорошем качестве Описание: В южноафриканской пустыне Намибии таинственным образом исчезла группа из нескольких человек. Из Канады приезжает учёный Зак ... 5 10 1
Торрент: Зарегистрирован [2021-06-30 15:42] · скачан: 5 раз
Статус: √ проверено
Размер: 3.99 GB
Как cкачать? Как скачать Похититель костей через торрент | UTorrent

28-11-2019 20:33  

Отключить всю рекламу на сайте


    Дорогой пользователь! Огромная просьба, поблагодарите релизера, оцените раздачу и оставьте свои комментарий, если Вы скачали Похититель костей через торрент бесплатно! Внесите свою лепту в развитие PiratBit!
    Комментировать посты могут только пользователи прошедшие не сложную регистрацию
    Показать сообщения:    

    Похититель костей через торрент
    Скачать бесплатно Похититель костей
    Похититель костей скачать торрент
    Похититель костей смотреть онлайн
    Cкачать фильм Похититель костей бесплатно
    Похититель костей скачать торрент в хорошем качестве
    Похититель костей смотреть онлайн бесплатно в хорошем качестве


    Вы не можете начинать темы
    Вы не можете отвечать на сообщения
    Вы не можете редактировать свои сообщения
    Вы не можете удалять свои сообщения
    Вы не можете голосовать в опросах
    Вы не можете прикреплять файлы к сообщениям
    Вы можете скачивать файлы