Присоединяйтесь к нам в Telegram!, здесь всегда актуальный адрес сайта, оперативная поддержка и многое другое!!

>

5.9

iTunes

7.4

iTunes

9.4

1 сезон

1

7.4

2 сезон

7.2

iTunes

7.3

1 сезон

13

6.1

iTunes

8.3

GOG

30

ULTIMATE

pack

9.9

Лицензия

ВАЖНО

ИГРА 18+

pack

7.3

RePack

MK11

7.7

RePack

jed

7.8

RePack

fifa19

8.5

RePack

RDR2

RePack

NEED FOR SPEED™ PAYBACK

5 сезон

9 сезон

Бесстыжие 9 сезон

Все сериалы

все сериалы на PB.wtf

RePack

FAR CRY 5

Anonymous, доброе утро, мы катастрофически не успеваем собрать деньги на оплату серверов, помогите нам пожалуйста 5,10,15р., для нас важна любая помощь . В качестве благодарности мы отключим Вам всю рекламу на сайте (укажите свой ник в строку Ваше имя)!

×
  
Magnet ссылка

Ледяной драйв / The Ice Road (Джонатан Хенсли) [2021, боевик, триллер, WEB-DLRip-AVC] DUB [iTunes] от MediaBit pb.wtf

Ледяной драйв через торрент pb.wtf

Раздают: 3 [ 0 KB/s ]
Размер: 2.2 GB | Добавлен: 4 мес. 16 д. назад | Торрент скачан:297 раз
Смотреть онлайн Ледяной драйв | Скачать    Ребята, помогите собрать деньги на оплату серверов!!!

30-06-2021 17:07 Ледяной драйв Скачать торрент  


Ледяной драйв / The Ice Road
Информация о фильме:
Название: Ледяной драйв
Оригинальное название: The Ice Road
Год выхода: 2021
Жанр: боевик, триллер
Режиссер: Джонатан Хенсли
В ролях: Лиам Нисон, Маркус Томас, Лоуренс Фишборн, Эмбер Мидфандер, Бенджамин Уокер, Холт Маккэллани, Мэтт МакКой, Мартин Сенсмейер, Мэтт Сэлинджер, Чад Брюс

Описание: Север Канады. Ненадёжный апрельский лёд, вес грузовика — 33 тонны. Проехать по замерзшей поверхности озера возможно только на определенной скорости, а остановка или ускорение означают верную смерть. Но именно такая задача стоит перед колонной грузовиков — только они могут спасти людей, оказавшихся в обрушившейся алмазной шахте. Однако ни трескающийся под колёсами лёд, ни снежная буря не сравнятся с испытаниями, которые ждут водителей впереди.



Страна: США
Студия: Code Entertainment, ShivHans Pictures, Envision Media Arts
Продолжительность: 01:49:15
Перевод: Дублированный - iTunes



Информация о файле:
Кодек: AVC
Формат: MKV
Качество: WEB-DLRip-AVC
Видео: MPEG-4 AVC, 1024x428, 23.976 fps, 2045 kb/s
Аудио RU: AC3, 6 ch, 48 kHz, 384 kbps
Аудио EN: AC3, 6 ch, 48 kHz, 448 kbps
Субтитры: Russian (Forced, Full), English
Навигация по главам: Да

x264 info: frame I:1509 Avg QP:11.79 size: 82902
x264 info: frame P:43143 Avg QP:15.77 size: 20683
x264 info: frame B:112499 Avg QP:19.72 size: 5831
General
Unique ID : 69380056220902906432098131091280983977 (0x34321CDF4679F6EA161F3E28263977A9)
Complete name : D:uTorrentРипы wolf1245Ice.Road.2021.DUB.WEB-DLRip-AVC.[wolf1245.MediaBit].mkv
Format : Matroska
Format version : Version 4
File size : 2.20 GiB
Duration : 1 h 49 min
Overall bit rate : 2 877 kb/s
Movie name : Ice.Road.2021.DUB.WEB-DLRip-AVC.[wolf1245.MediaBit]
Encoded date : UTC 2021-07-16 15:47:15
Writing application : mkvmerge v59.0.0 ('Shining Star') 64-bit
Writing library : libebml v1.4.2 + libmatroska v1.6.4
Video
ID : 1
Format : AVC
Format/Info : Advanced Video Codec
Format profile : High@L4.1
Format settings : CABAC / 12 Ref Frames
Format settings, CABAC : Yes
Format settings, Reference frames : 12 frames
Codec ID : V_MPEG4/ISO/AVC
Duration : 1 h 49 min
Bit rate : 2 045 kb/s
Width : 1 024 pixels
Height : 428 pixels
Display aspect ratio : 2.40:1
Frame rate mode : Constant
Frame rate : 23.976 (24000/1001) FPS
Color space : YUV
Chroma subsampling : 4:2:0
Bit depth : 8 bits
Scan type : Progressive
Bits/(Pixel*Frame) : 0.195
Stream size : 1.56 GiB (71%)
Title : .[wolf1245.MediaBit]
Writing library : x264 core 157 r2958 57baac4
Encoding settings : cabac=1 / ref=12 / deblock=1:-2:-2 / analyse=0x3:0x133 / me=umh / subme=10 / psy=1 / psy_rd=1.00:0.15 / mixed_ref=1 / me_range=32 / chroma_me=1 / trellis=2 / 8x8dct=1 / cqm=0 / deadzone=21,11 / fast_pskip=1 / chroma_qp_offset=-3 / threads=10 / lookahead_threads=2 / sliced_threads=0 / nr=0 / decimate=1 / interlaced=0 / bluray_compat=0 / constrained_intra=0 / bframes=10 / b_pyramid=2 / b_adapt=2 / b_bias=0 / direct=3 / weightb=1 / open_gop=0 / weightp=2 / keyint=240 / keyint_min=24 / scenecut=40 / intra_refresh=0 / rc_lookahead=60 / rc=2pass / mbtree=1 / bitrate=2045 / ratetol=1.0 / qcomp=0.60 / qpmin=0 / qpmax=69 / qpstep=4 / cplxblur=20.0 / qblur=0.5 / vbv_maxrate=50000 / vbv_bufsize=62500 / nal_hrd=none / filler=0 / ip_ratio=1.40 / aq=3:0.80
Language : English
Default : Yes
Forced : No
Color range : Limited
Color primaries : BT.709
Transfer characteristics : BT.709
Matrix coefficients : BT.709
Audio #1
ID : 2
Format : AC-3
Format/Info : Audio Coding 3
Commercial name : Dolby Digital
Codec ID : A_AC3
Duration : 1 h 49 min
Bit rate mode : Constant
Bit rate : 384 kb/s
Channel(s) : 6 channels
Channel layout : L R C LFE Ls Rs
Sampling rate : 48.0 kHz
Frame rate : 31.250 FPS (1536 SPF)
Compression mode : Lossy
Stream size : 300 MiB (13%)
Title : DUB | iTunes
Language : Russian
Service kind : Complete Main
Default : Yes
Forced : No
Audio #2
ID : 3
Format : AC-3
Format/Info : Audio Coding 3
Commercial name : Dolby Digital
Codec ID : A_AC3
Duration : 1 h 49 min
Bit rate mode : Constant
Bit rate : 448 kb/s
Channel(s) : 6 channels
Channel layout : L R C LFE Ls Rs
Sampling rate : 48.0 kHz
Frame rate : 31.250 FPS (1536 SPF)
Compression mode : Lossy
Stream size : 350 MiB (16%)
Title : Original
Language : English
Service kind : Complete Main
Default : Yes
Forced : No
Text #1
ID : 4
Format : UTF-8
Codec ID : S_TEXT/UTF8
Codec ID/Info : UTF-8 Plain Text
Duration : 1 h 41 min
Bit rate : 2 b/s
Count of elements : 20
Stream size : 1.72 KiB (0%)
Title : Forced (iTunes)
Language : Russian
Default : Yes
Forced : Yes
Text #2
ID : 5
Format : UTF-8
Codec ID : S_TEXT/UTF8
Codec ID/Info : UTF-8 Plain Text
Duration : 1 h 40 min
Bit rate : 68 b/s
Count of elements : 856
Stream size : 50.1 KiB (0%)
Title : Full (iTunes)
Language : Russian
Default : No
Forced : No
Text #3
ID : 6
Format : UTF-8
Codec ID : S_TEXT/UTF8
Codec ID/Info : UTF-8 Plain Text
Duration : 1 h 44 min
Bit rate : 40 b/s
Count of elements : 1112
Stream size : 31.1 KiB (0%)
Title : English
Language : English
Default : No
Forced : No
Text #4
ID : 7
Format : UTF-8
Codec ID : S_TEXT/UTF8
Codec ID/Info : UTF-8 Plain Text
Duration : 1 h 45 min
Bit rate : 48 b/s
Count of elements : 1360
Stream size : 37.3 KiB (0%)
Title : English SDH
Language : English
Default : No
Forced : No
Menu
00:00:00.000 : Amazon Original
00:00:06.000 : Studio Logo
00:00:41.000 : Scene 3
00:03:34.000 : Scene 4
00:04:58.000 : Scene 5
00:06:20.000 : Scene 6
00:11:18.000 : Scene 7
00:14:10.000 : Scene 8
00:16:57.000 : Scene 9
00:17:29.000 : Scene 10
00:20:12.000 : Scene 11
00:22:25.000 : Scene 12
00:26:07.000 : Scene 13
00:26:50.000 : Scene 14
00:28:24.000 : Scene 15
00:39:11.000 : Scene 16
00:41:32.000 : Scene 17
00:46:28.000 : Scene 18
00:48:12.000 : Scene 19
00:48:42.000 : Scene 20
00:53:38.000 : Scene 21
01:02:10.000 : Scene 22
01:04:20.000 : Scene 23
01:05:54.000 : Scene 24
01:13:06.000 : Scene 25
01:17:33.000 : Scene 26
01:23:14.000 : Scene 27
01:25:02.000 : Scene 28
01:29:07.000 : Scene 29
01:35:58.000 : Scene 30
01:38:10.000 : Scene 31
01:41:46.000 : Scene 32
01:43:36.000 : End Credits
Релиз от: &
Автор релиза:
pb.wtf



Скачать Ледяной драйв через торрент https://a.radikal.ru/a15/2106/09/5032debf11de.png Скачать, смотреть онлайн Ледяной драйв бесплантно в хорошем качестве Описание: Север Канады. Ненадёжный апрельский лёд, вес грузовика — 33 тонны. Проехать по замерзшей поверхности озера возможно только на ... 9.9 10 18
Info! Золотая раздача, скачанное не засчитывается.
Торрент: Зарегистрирован [2021-07-16 16:15] · скачан: 297 раз
Статус: √ проверено
Размер: 2.2 GB
Как cкачать? Как скачать Ледяной драйв через торрент | UTorrent

28-11-2019 20:33  

Отключить всю рекламу на сайте

17-07-2021 04:10 Ледяной драйв Скачать торрент  

Какой гений залил такой семпл с пятью словами и все остальное время молчание????pb.wtf



25-09-2021 03:32 Ледяной драйв Скачать торрент  

Heisenberg22 писал(а):

Какой гений залил такой семпл с пятью словами и все остальное время молчание????

Слева в колонке написано имя гения.pb.wtf



    Дорогой пользователь! Огромная просьба, поблагодарите релизера, оцените раздачу и оставьте свои комментарий, если Вы скачали Ледяной драйв через торрент бесплатно!
    Комментировать посты могут только пользователи прошедшие не сложную регистрацию
    Показать сообщения:    

    Ледяной драйв через торрент
    Скачать бесплатно Ледяной драйв
    Ледяной драйв скачать торрент
    Ледяной драйв смотреть онлайн
    Cкачать фильм Ледяной драйв бесплатно
    Ледяной драйв скачать торрент в хорошем качестве
    Ледяной драйв смотреть онлайн бесплатно в хорошем качестве


    Вы не можете начинать темы
    Вы не можете отвечать на сообщения
    Вы не можете редактировать свои сообщения
    Вы не можете удалять свои сообщения
    Вы не можете голосовать в опросах
    Вы не можете прикреплять файлы к сообщениям
    Вы можете скачивать файлы