1 сезон

3 сезон

iTunes

1

Line

MVO

iTunes

13

1 сезон

RePack

30

Deluxe

pack

Лицензия

ВАЖНО

ИГРА 18+

pack

RePack

MK11

RePack

jed

RePack

fifa19

RePack

RDR2

RePack

NEED FOR SPEED™ PAYBACK

4 сезон

9 сезон

Бесстыжие 9 сезон

Все сериалы

все сериалы на PB.wtf

RePack

FAR CRY 5

Anonymous, доброе утро, мы катастрофически не успеваем собрать деньги на оплату серверов, помогите нам пожалуйста 5,10,15р., для нас важна любая помощь . В качестве благодарности мы отключим Вам всю рекламу на сайте (укажите свой ник в строку Ваше имя)!

×
  
Magnet ссылка

Тайна Мосли / Mosley (Кирби Эткинс) [2019, Мультфильм, BDRip 1080p] DUB [RUS Transfer / Лицензия Blu-ray RUS] pb.wtf

Тайна Мосли через торрент pb.wtf

Раздают: 2 [ 25 KB/s ]
Размер: 8 GB | Добавлен: 28 д. назад | Торрент скачан:47 раз
Скачать  

30-06-2021 17:40 Тайна Мосли Скачать торрент  

Тайна Мосли | Mosley
Год выпуска: 2019
Страна: Новая Зеландия, Китай
Студия: China Film Animation, Huhu Studios
Жанр: мультфильм
Продолжительность: 01:36:31
Перевод: Дублированный | Лицензия Blu-ray RUS
Субтитры: Английские

Режиссер: Кирби Эткинс

rating

В ролях: Джон Рис-Дэвис, Люси Лоулесс, Риз Дэрби, Темуэра Моррисон, Джей Саймон, Кирби Эткинс, Дэрил Хабрейкен, Тимоти Рэби, Курт Клонингер, Леа Эткинс

Описание: В далеком-далеком прошлом удивительные животные Торифанты восстают против жизни в рабстве людей и отправляются в опасное путешествие в поисках… свободы. Ведь их прошлое хранит невероятную тайну.

Качество: BDRip 1080p
Формат: MKV

Видео: MPEG-4 AVC, 1920x804, 9324 Кbit/s, 24.000 fps
Аудио #01: 48 kHz, DTS, 5.1, 1510 Kbps | Дублированный | Лицензия | RUS |
Аудио #02: 48 kHz, AC3, 5.1, 640 Kbps | Дублированный | Лицензия | RUS |
Аудио #03: 48 kHz, AC3, 5.1, 384 Kbps | Оригинал | ENG |
скриншот  скриншот  скриншот  скриншот  скриншот  

General
Unique ID : 271596852015396061932877109855187632817 (0xCC53A6A893A152D130CD54F33BA402B1)
Complete name : F:VideoMosley.2019.BDRip.1080p.seleZen.mkv
Format : Matroska
Format version : Version 4
File size : 8.00 GiB
Duration : 1 h 36 min
Overall bit rate : 11.9 Mb/s
Movie name : Mosley 2019 from seleZen
Encoded date : UTC 2021-06-30 17:12:35
Writing application : mkvmerge v55.0.0 ('Waiting For Space') 64-bit
Writing library : libebml v1.4.2 + libmatroska v1.6.4

Video
ID : 1
Format : AVC
Format/Info : Advanced Video Codec
Format profile : High@L4.1
Format settings : CABAC / 5 Ref Frames
Format settings, CABAC : Yes
Format settings, Reference : 5 frames
Codec ID : V_MPEG4/ISO/AVC
Duration : 1 h 36 min
Bit rate : 9 324 kb/s
Width : 1 920 pixels
Height : 804 pixels
Display aspect ratio : 2.40:1
Frame rate mode : Constant
Frame rate : 24.000 FPS
Color space : YUV
Chroma subsampling : 4:2:0
Bit depth : 8 bits
Scan type : Progressive
Bits/(Pixel*Frame) : 0.252
Stream size : 6.29 GiB (79%)
Writing library : x264 core 146 -from seleZen
Encoding settings : cabac=1 / ref=5 / deblock=1:-2:-2 / analyse=0x3:0x133 / me=umh / subme=10 / psy=1 / psy_rd=1.03:0.02 / mixed_ref=1 / me_range=32 / chroma_me=1 / trellis=2 / 8x8dct=1 / cqm=0 / deadzone=21,11 / fast_pskip=0 / chroma_qp_offset=-3 / threads=36 / lookahead_threads=6 / sliced_threads=0 / nr=0 / decimate=0 / interlaced=0 / bluray_compat=0 / constrained_intra=0 / bframes=8 / b_pyramid=2 / b_adapt=2 / b_bias=0 / direct=3 / weightb=1 / open_gop=0 / weightp=2 / keyint=240 / keyint_min=23 / scenecut=40 / intra_refresh=0 / rc_lookahead=50 / rc=2pass / mbtree=0 / bitrate=9324 / ratetol=1.0 / qcomp=0.60 / qpmin=0 / qpmax=51 / qpstep=4 / cplxblur=20.0 / qblur=0.5 / vbv_maxrate=50000 / vbv_bufsize=62500 / nal_hrd=none / filler=0 / ip_ratio=1.40 / pb_ratio=1.30 / aq=3:0.80
Language : English
Default : Yes
Forced : No

Audio #1
ID : 2
Format : DTS
Format/Info : Digital Theater Systems
Codec ID : A_DTS
Duration : 1 h 36 min
Bit rate mode : Constant
Bit rate : 1 509 kb/s
Channel(s) : 6 channels
Channel layout : C L R Ls Rs LFE
Sampling rate : 48.0 kHz
Frame rate : 93.750 FPS (512 SPF)
Bit depth : 24 bits
Compression mode : Lossy
Stream size : 1.02 GiB (13%)
Title : Dub [License]
Language : Russian
Default : Yes
Forced : Yes

Audio #2
ID : 3
Format : AC-3
Format/Info : Audio Coding 3
Commercial name : Dolby Digital
Codec ID : A_AC3
Duration : 1 h 36 min
Bit rate mode : Constant
Bit rate : 640 kb/s
Channel(s) : 6 channels
Channel layout : L R C LFE Ls Rs
Sampling rate : 48.0 kHz
Frame rate : 31.250 FPS (1536 SPF)
Compression mode : Lossy
Stream size : 442 MiB (5%)
Title : Dub [License]
Language : Russian
Service kind : Complete Main
Default : No
Forced : No

Audio #3
ID : 4
Format : AC-3
Format/Info : Audio Coding 3
Commercial name : Dolby Digital
Codec ID : A_AC3
Duration : 1 h 36 min
Bit rate mode : Constant
Bit rate : 384 kb/s
Channel(s) : 6 channels
Channel layout : L R C LFE Ls Rs
Sampling rate : 48.0 kHz
Frame rate : 31.250 FPS (1536 SPF)
Compression mode : Lossy
Stream size : 265 MiB (3%)
Title : Original
Language : English
Service kind : Complete Main
Default : No
Forced : No

Text
ID : 5
Format : UTF-8
Codec ID : S_TEXT/UTF8
Codec ID/Info : UTF-8 Plain Text
Duration : 1 h 30 min
Bit rate : 48 b/s
Count of elements : 1019
Stream size : 32.2 KiB (0%)
Title : Full
Language : English
Default : No
Forced : No

Menu
00:00:00.000 : en:Глава 01
00:01:10.500 : en:Глава 02
00:09:05.500 : en:Глава 03
00:15:15.125 : en:Глава 04
00:26:44.417 : en:Глава 05
00:35:46.250 : en:Глава 06
00:44:06.792 : en:Глава 07
00:54:27.667 : en:Глава 08
01:03:36.958 : en:Глава 09
01:14:21.042 : en:Глава 10
01:24:59.500 : en:Глава 11

pb.wtf



Скачать Тайна Мосли через торрент https://i115.fastpic.ru/big/2021/0630/f3/4085e280a11d7054315181e4aeb4fbf3.jpg Скачать фильм Тайна Мосли через торрент бесплантно в хорошем качестве Описание: В далеком-далеком прошлом удивительные животные Торифанты восстают против жизни в рабстве людей и отправляются в опасное ... 10 10 5
Торрент: Зарегистрирован [2021-06-30 17:40] · скачан: 47 раз
Статус: √ проверено
Размер: 8 GB
Как cкачать? Как скачать Тайна Мосли через торрент | UTorrent

% Раздел Тема Автор DL S | L
Зарубежные Мультфильмы (BDRip 1080p, 720p, Blu-ray, BD-Remux) [ 2.57 GB ] Тайна Мосли / Mosley [2019 Мультфильм BDRip 720p] DUB [RUS Transfer / Blu-ray RUS] bober100 Скачать
5 | 0
Иностранные мультфильмы [ 746 MB ] Тайна Мосли / Mosley [2019 мультфильм BDRip] DUB [RUS Transfer / Blu-ray RUS] bober100 Скачать
2 | 0
Зарубежные Мультфильмы (WEB-DL 720p, 1080p) [ 2.55 GB ] Тайна Мосли / Mosley [2019 мультфильм WEB-DL 720p] bober100 Скачать
1 | 0
Зарубежные Мультфильмы (WEB-DL 720p, 1080p) [ 3.59 GB ] Тайна Мосли / Mosley [2019 мультфильм WEB-DL 1080p] bober100 Скачать
6 | 0
Иностранные мультфильмы [ 1.46 GB ] Тайна Мосли / Mosley [2019 мультфильм BDRip] DUB [RUS Transfer / Blu-ray RUS] bober100 Скачать
3 | 0

28-11-2019 20:33  

Отключить всю рекламу на сайте

    Дорогой пользователь! Огромная просьба, поблагодарите релизера, оцените раздачу и оставьте свои комментарий, если Вы скачали Тайна Мосли через торрент бесплатно! Внесите свою лепту в развитие PiratBit!
    Комментировать посты могут только пользователи прошедшие не сложную регистрацию
    Показать сообщения:    

    Тайна Мосли через торрент
    Скачать бесплатно Тайна Мосли
    Тайна Мосли скачать торрент
    Тайна Мосли смотреть онлайн
    Cкачать фильм Тайна Мосли бесплатно
    Тайна Мосли скачать торрент в хорошем качестве
    Тайна Мосли смотреть онлайн бесплатно в хорошем качестве


    Вы не можете начинать темы
    Вы не можете отвечать на сообщения
    Вы не можете редактировать свои сообщения
    Вы не можете удалять свои сообщения
    Вы не можете голосовать в опросах
    Вы не можете прикреплять файлы к сообщениям
    Вы можете скачивать файлы