Всегда рабочее зеркало без VPN и Proxy просто перед .vidak.icu напиши любое слово или цифру, Пример http://t7z7.vidak.icu

MVO

2 сезон

2 сезон

1

1 сезон

iTunes

2 сезон

13

1 сезон

Deluxe

pack

Рекомендуем

Пиратка

30

ВАЖНО

RePack

MK11

RePack

jed

RePack

fifa19

RePack

RDR2

RePack

NEED FOR SPEED™ PAYBACK

Кинопоиск HD

6 сезон

 Острые козырьки 6 сезон

Все сериалы

все сериалы на PB.wtf

RePack

FAR CRY 5

Anonymous, нам критически не хватает 5601 руб. на оплату серверов и переферии за Апрель, помоги нам пожалуйста, вся надежда только на тебя. В благодарность мы отключим тебе всю рекламу на сайте!

×
  
Magnet ссылка

Архипелаг (Алексей Тельнов) [2021, драма, мелодрама, WEB-DLRip-AVC] [iTunes] pb.wtf

Архипелаг через торрент pb.wtf

Раздают: 10 [ 0 KB/s ]
Размер: 1.44 GB | Добавлен: 10 мес. назад | Торрент скачан:176 раз
Смотреть онлайн Архипелаг | Скачать    Ребята, помогите собрать деньги на оплату серверов!!!

01-07-2021 10:55 Архипелаг Скачать торрент  

Архипелаг

Страна: Россия
Жанр: драма, мелодрама
Год выпуска: 2021
Продолжительность: 01:43:33

Перевод: Не требуется
Субтитры: русские (форсированные, хардсаб)
Оригинальная аудиодорожка: русский

Режиссер: Алексей Тельнов

В ролях: Дмитрий Паламарчук, Марина Петренко, Андрей Мерзликин, Алексей Шевченков, Андрей Некрасов, Сергей Барковский, Евгений Лямин, Владимир Космидайло

Описание: Картина повествует о подвиге российских ученых, которые отправляются на Шпицберген в составе российско-шведской экспедиции с целью измерения реальных размеров и формы земного шара, ведь на протяжении трехсот лет никому не удавалось решить эту амбициозную задачу. Российскую экспедицию возглавляет молодой астроном Александр Васильев. Ради любви к истине он вынужден оставить в Санкт-Петербурге свою невесту, понимая, что другого шанса может и не представиться.



Релиз:

Автор рипа: stalkerok

Сэмпл

Качество видео: WEB-DLRip-AVC | Исходник: Arkhipelag.2020.1080p.iT.WEB-DL.DD5.1.H.264-EniaHD
Формат видео: MKV
Видео кодек: AVC
Аудио кодек: AC3
Видео: AVC, 1601 Кбит/сек, 1132x474 (2.40:1), 24 кадр/сек
Аудио: AC3, 384 Кбит/сек, 48 КГц, 5.1 - русский | iTunes
Навигация по главам: есть
---[Information] [01.07.2021 13:40:52] x264 [info]: frame I:815 Avg QP:15.05 size: 45115
---[Information] [01.07.2021 13:40:52] x264 [info]: frame P:35631 Avg QP:16.73 size: 16851
---[Information] [01.07.2021 13:40:52] x264 [info]: frame B:112675 Avg QP:19.81 size: 5387
---[Information] [01.07.2021 13:40:52] x264 [info]: consecutive B-frames: 1.1% 3.2% 4.6% 58.4% 10.6% 16.0% 2.5% 1.9% 0.6% 0.3% 0.3% 0.3% 0.1% 0.1% 0.0%

General
Unique ID : 86376429799063990691189495372554654109 (0x40FB7EC99DE55850C718E759485F519D)
Complete name : J:\Arkhipelag.2020\Arkhipelag.2020.WEB-DLRip.x264.Rus.stalkerok.New-Team.mkv
Format : Matroska
Format version : Version 4
File size : 1.44 GiB
Duration : 1 h 43 min
Overall bit rate : 1 988 kb/s
Movie name : Архипелаг (2020) | Rip by stalkerok
Encoded date : UTC 2021-07-01 10:41:34
Writing application : mkvmerge v58.0.0 ('Supper's Ready') 64-bit
Writing library : libebml v1.4.2 + libmatroska v1.6.4

Video
ID : 1
Format : AVC
Format/Info : Advanced Video Codec
Format profile : High@L4.1
Format settings : CABAC / 12 Ref Frames
Format settings, CABAC : Yes
Format settings, Reference frames : 12 frames
Codec ID : V_MPEG4/ISO/AVC
Duration : 1 h 43 min
Bit rate : 1 602 kb/s
Width : 1 132 pixels
Height : 474 pixels
Display aspect ratio : 2.40:1
Frame rate mode : Constant
Frame rate : 24.000 FPS
Color space : YUV
Chroma subsampling : 4:2:0
Bit depth : 8 bits
Scan type : Progressive
Bits/(Pixel*Frame) : 0.124
Stream size : 1.16 GiB (81%)
Writing library : x264 core 164 r3065+55M 280faca t_mod_New [(8 & 10)-bit@all X86_64]
Encoding settings : cabac=1 / ref=12 / deblock=1:-3:-2 / analyse=0x3:0x133 / me=umh / subme=10 / psy=1 / fade_compensate=0.00 / psy_rd=1.00:0.00 / mixed_ref=1 / me_range=32 / chroma_me=1 / trellis=2 / 8x8dct=1 / cqm=0 / deadzone=21,11 / fast_pskip=0 / chroma_qp_offset=-2 / threads=12 / lookahead_threads=3 / sliced_threads=0 / nr=0 / decimate=1 / interlaced=0 / bluray_compat=0 / constrained_intra=0 / fgo=0 / bframes=14 / b_pyramid=2 / b_adapt=2 / b_bias=0 / direct=3 / weightb=1 / open_gop=0 / weightp=2 / keyint=240 / keyint_min=24 / scenecut=40 / intra_refresh=0 / rc_lookahead=60 / rc=crf / mbtree=0 / crf=19.0000 / qcomp=0.65 / qpmin=0:0:0 / qpmax=69:69:69 / qpstep=4 / vbv_maxrate=50000 / vbv_bufsize=62500 / crf_max=0.0 / nal_hrd=none / filler=0 / ip_ratio=1.40 / pb_ratio=1.30 / aq=3:0.80 / aq-sensitivity=10.00 / aq-factor=1.00:1.00:1.00 / aq2=0 / aq3=0
Default : Yes
Forced : No

Audio
ID : 2
Format : AC-3
Format/Info : Audio Coding 3
Commercial name : Dolby Digital
Codec ID : A_AC3
Duration : 1 h 43 min
Bit rate mode : Constant
Bit rate : 384 kb/s
Channel(s) : 6 channels
Channel layout : L R C LFE Ls Rs
Sampling rate : 48.0 kHz
Frame rate : 31.250 FPS (1536 SPF)
Compression mode : Lossy
Stream size : 284 MiB (19%)
Language : Russian
Service kind : Complete Main
Default : Yes
Forced : No

Menu
00:00:00.000 : Глава 1
00:07:09.791 : Глава 2
00:13:23.166 : Глава 3
00:21:18.041 : Глава 4
00:30:19.916 : Глава 5
00:35:30.957 : Глава 6
00:40:51.207 : Глава 7
00:48:49.540 : Глава 8
00:56:07.415 : Глава 9
01:04:16.873 : Глава 10
01:11:26.289 : Глава 11
01:18:31.122 : Глава 12
01:25:05.205 : Глава 13
01:31:25.163 : Глава 14
01:36:17.621 : Глава 15
pb.wtf



Скачать Архипелаг через торрент http://i6.imageban.ru/out/2017/09/18/2ff75c0c358795c5946784cc1680714d.png Скачать, смотреть онлайн Архипелаг бесплантно в хорошем качестве Описание: Картина повествует о подвиге российских ученых, которые отправляются на Шпицберген в составе российско-шведской экспедиции с ... 10 10 3
Info! Золотая раздача, скачанное не засчитывается.
Торрент: Зарегистрирован [2021-07-01 10:55] · скачан: 176 раз
Статус: √ проверено
Размер: 1.44 GB
Как cкачать? Как скачать Архипелаг через торрент | UTorrent

% Раздел Тема Автор DL S | L
Наши новые фильмы 2020 - 2022 [ 1.46 GB ] Архипелаг [2021 WEB-DLRip] bober100 Скачать
1 | 0
Наши фильмы (HD, WEB-DL 720p, 1080p) [ 3.55 GB ] Архипелаг [2021 WEB-DL 1080p] bober100 Скачать
1 | 0
Рок, Панк, Альтернатива (mp3) [ 91 MB ] Юлия Андреева и группа Архипелаг - Точка невозврата 2019 / MP3 / 320 kbps / Рок bober100 Скачать
1 | 0
Фантастика [ 559 MB ] Артем Каменистый - На краю архипелага [Альберт Фомин 2018 96 kbps MP3] oleg8 Скачать
1 | 0
Фантастика [ 383 MB ] Андрей Васильев - Файролл: Черные флаги Архипелага [Александр Чайцын 2016 56-64 Кбит/с MP3] Nixet Скачать
1 | 0
Фантастика, фентези, мистика, ужасы [ 2 MB ] Владимир Кравченко / Архипелаг [FB2] Armstrong Скачать
1 | 0
Аниме [HD 720p, 1080p] [ 9.68 GB ] Карманные монстры: Наилучших Благ! на архипелаге Деколора / Pocket Monsters: Best Wishes! - Decolora Adventure [2013 HDTV 720p Любительский двухголосый] [FRT Sora] Sora Скачать
1 | 0


Последний раз редактировалось: sokol_ok (2021-07-01 14:54), всего редактировалось 1 раз

28-11-2019 20:33  

Отключить всю рекламу на сайте

    Дорогой пользователь! Огромная просьба, поблагодарите релизера, оцените раздачу и оставьте свои комментарий, если Вы скачали Архипелаг через торрент бесплатно!
    Комментировать посты могут только пользователи прошедшие не сложную регистрацию
    Показать сообщения:    

    Архипелаг через торрент
    Скачать бесплатно Архипелаг
    Архипелаг скачать торрент
    Архипелаг смотреть онлайн
    Cкачать фильм Архипелаг бесплатно
    Архипелаг скачать торрент в хорошем качестве
    Архипелаг смотреть онлайн бесплатно в хорошем качестве


    Вы не можете начинать темы
    Вы не можете отвечать на сообщения
    Вы не можете редактировать свои сообщения
    Вы не можете удалять свои сообщения
    Вы не можете голосовать в опросах
    Вы не можете прикреплять файлы к сообщениям
    Вы можете скачивать файлы