Присоединяйтесь к нам в Telegram!, здесь всегда актуальный адрес сайта, оперативная поддержка и многое другое!!

>

5.9

iTunes

7.4

iTunes

9.4

1 сезон

1

7.4

2 сезон

7.2

iTunes

7.3

1 сезон

13

6.1

iTunes

8.3

GOG

30

ULTIMATE

pack

9.9

Лицензия

ВАЖНО

ИГРА 18+

pack

7.3

RePack

MK11

7.7

RePack

jed

7.8

RePack

fifa19

8.5

RePack

RDR2

RePack

NEED FOR SPEED™ PAYBACK

5 сезон

9 сезон

Бесстыжие 9 сезон

Все сериалы

все сериалы на PB.wtf

RePack

FAR CRY 5

Anonymous, добрый день, мы катастрофически не успеваем собрать деньги на оплату серверов, помогите нам пожалуйста 5,10,15р., для нас важна любая помощь . В качестве благодарности мы отключим Вам всю рекламу на сайте (укажите свой ник в строку Ваше имя)!

×
  
Magnet ссылка

Короче говоря / Long Story Short (Джош Лоусон) [2021, Мелодрама, комедия, WEB-DLRip-AVC] MVO [iTunes] от MediaBit pb.wtf

Короче говоря через торрент pb.wtf

Раздают: 2 [ 0 KB/s ]
Размер: 2.05 GB | Добавлен: 5 мес. назад | Торрент скачан:140 раз
Смотреть онлайн Короче говоря | Скачать    Ребята, помогите собрать деньги на оплату серверов!!!

01-07-2021 16:32 Короче говоря Скачать торрент  


Короче говоря / Long Story Short
Информация о фильме:
Название: Короче говоря
Оригинальное название: Long Story Short
Год выхода: 2021
Жанр: Мелодрама, комедия
Режиссер: Джош Лоусон
В ролях: Рейф Сполл, Джош Лоусон, Ронни Чиэн, Дена Каплан, Нони Хазлхерст, Зара Ньюман

Описание: Проснувшись на следующее утро после свадьбы, Тедди обнаруживает, что отныне каждые несколько минут его жизни буквально приравниваются к одному году. Каждый момент теперь на вес золота: Тедди нужно не потерять свою возлюбленную и научиться любить жизнь, которая от него ускользает.

rating

Страна: Австралия
Студия: Create NSW, Screen Australia, See Pictures, Spectrum Films, Studio Canal
Продолжительность: 01:33:57
Перевод: Профессиональный (многоголосый, закадровый) - iTunes



Информация о файле:
Кодек: AVC
Формат: MKV
Качество: WEB-DLRip-AVC
Видео: MPEG-4 AVC, 1024x428, 23.976 fps, 2354 kbps
Аудио RU: AC3, 6 ch, 48 kHz, 384 kbps
Аудио EN: AC3, 6 ch, 48 kHz, 384 kbps
Субтитры: Отсутсвуют

x264 info: frame I:1025 Avg QP:11.47 size: 92809
x264 info: frame P:35474 Avg QP:14.35 size: 28655
x264 info: frame B:98654 Avg QP:17.59 size: 5546
General
Unique ID : 9387391997514440654562189551684445396 (0x70FF228C7FB6293E14A323DFB0E64D4)
Complete name : D:uTorrentРипы wolf1245Long.Story.Short.2021.MVO.WEB-DLRip-AVC.[wolf1245.MediaBit].mkv
Format : Matroska
Format version : Version 4
File size : 2.05 GiB
Duration : 1 h 33 min
Overall bit rate : 3 124 kb/s
Movie name : Long.Story.Short.2021.MVO.WEB-DLRip-AVC.[wolf1245.MediaBit]
Encoded date : UTC 2021-07-01 16:21:41
Writing application : mkvmerge v58.0.0 ('Supper's Ready') 64-bit
Writing library : libebml v1.4.2 + libmatroska v1.6.4
Video
ID : 1
Format : AVC
Format/Info : Advanced Video Codec
Format profile : High@L4.1
Format settings : CABAC / 12 Ref Frames
Format settings, CABAC : Yes
Format settings, Reference frames : 12 frames
Codec ID : V_MPEG4/ISO/AVC
Duration : 1 h 33 min
Bit rate : 2 354 kb/s
Width : 1 024 pixels
Height : 428 pixels
Display aspect ratio : 2.40:1
Frame rate mode : Constant
Frame rate : 23.976 (24000/1001) FPS
Color space : YUV
Chroma subsampling : 4:2:0
Bit depth : 8 bits
Scan type : Progressive
Bits/(Pixel*Frame) : 0.224
Stream size : 1.54 GiB (75%)
Title : .[wolf1245.MediaBit]
Writing library : x264 core 157 r2958 57baac4
Encoding settings : cabac=1 / ref=12 / deblock=1:-2:-2 / analyse=0x3:0x133 / me=umh / subme=10 / psy=1 / psy_rd=1.00:0.15 / mixed_ref=1 / me_range=32 / chroma_me=1 / trellis=2 / 8x8dct=1 / cqm=0 / deadzone=21,11 / fast_pskip=1 / chroma_qp_offset=-3 / threads=10 / lookahead_threads=2 / sliced_threads=0 / nr=0 / decimate=1 / interlaced=0 / bluray_compat=0 / constrained_intra=0 / bframes=10 / b_pyramid=2 / b_adapt=2 / b_bias=0 / direct=3 / weightb=1 / open_gop=0 / weightp=2 / keyint=240 / keyint_min=24 / scenecut=40 / intra_refresh=0 / rc_lookahead=60 / rc=2pass / mbtree=1 / bitrate=2354 / ratetol=1.0 / qcomp=0.60 / qpmin=0 / qpmax=69 / qpstep=4 / cplxblur=20.0 / qblur=0.5 / vbv_maxrate=50000 / vbv_bufsize=62500 / nal_hrd=none / filler=0 / ip_ratio=1.40 / aq=3:0.80
Language : English
Default : Yes
Forced : No
Audio #1
ID : 2
Format : AC-3
Format/Info : Audio Coding 3
Commercial name : Dolby Digital
Codec ID : A_AC3
Duration : 1 h 33 min
Bit rate mode : Constant
Bit rate : 384 kb/s
Channel(s) : 6 channels
Channel layout : L R C LFE Ls Rs
Sampling rate : 48.0 kHz
Frame rate : 31.250 FPS (1536 SPF)
Bit depth : 16 bits
Compression mode : Lossy
Stream size : 258 MiB (12%)
Title : MVO | iTunes
Language : Russian
Service kind : Complete Main
Default : Yes
Forced : No
Audio #2
ID : 3
Format : AC-3
Format/Info : Audio Coding 3
Commercial name : Dolby Digital
Codec ID : A_AC3
Duration : 1 h 33 min
Bit rate mode : Constant
Bit rate : 384 kb/s
Channel(s) : 6 channels
Channel layout : L R C LFE Ls Rs
Sampling rate : 48.0 kHz
Frame rate : 31.250 FPS (1536 SPF)
Bit depth : 16 bits
Compression mode : Lossy
Stream size : 258 MiB (12%)
Title : Original
Language : English
Service kind : Complete Main
Default : No
Forced : No
Релиз от: &
Автор релиза:
pb.wtf



Скачать Короче говоря через торрент https://c.radikal.ru/c21/2107/3c/bdb03f14e99e.jpg Скачать, смотреть онлайн Короче говоря бесплантно в хорошем качестве Описание: Проснувшись на следующее утро после свадьбы, Тедди обнаруживает, что отныне каждые несколько минут его жизни буквально ... 10 10 2
Торрент: Зарегистрирован [2021-07-01 16:32] · скачан: 140 раз
Статус: √ проверено
Размер: 2.05 GB
Как cкачать? Как скачать Короче говоря через торрент | UTorrent

28-11-2019 20:33  

Отключить всю рекламу на сайте

    Дорогой пользователь! Огромная просьба, поблагодарите релизера, оцените раздачу и оставьте свои комментарий, если Вы скачали Короче говоря через торрент бесплатно!
    Комментировать посты могут только пользователи прошедшие не сложную регистрацию
    Показать сообщения:    

    Короче говоря через торрент
    Скачать бесплатно Короче говоря
    Короче говоря скачать торрент
    Короче говоря смотреть онлайн
    Cкачать фильм Короче говоря бесплатно
    Короче говоря скачать торрент в хорошем качестве
    Короче говоря смотреть онлайн бесплатно в хорошем качестве


    Вы не можете начинать темы
    Вы не можете отвечать на сообщения
    Вы не можете редактировать свои сообщения
    Вы не можете удалять свои сообщения
    Вы не можете голосовать в опросах
    Вы не можете прикреплять файлы к сообщениям
    Вы можете скачивать файлы