Присоединяйтесь к нам в Telegram!, здесь всегда актуальный адрес сайта, оперативная поддержка и многое другое!!

>

5.9

iTunes

7.4

iTunes

9.4

1 сезон

1

7.4

2 сезон

7.2

iTunes

7.3

1 сезон

13

6.1

iTunes

8.3

GOG

30

ULTIMATE

pack

9.9

Лицензия

ВАЖНО

ИГРА 18+

pack

7.3

RePack

MK11

7.7

RePack

jed

7.8

RePack

fifa19

8.5

RePack

RDR2

RePack

NEED FOR SPEED™ PAYBACK

5 сезон

9 сезон

Бесстыжие 9 сезон

Все сериалы

все сериалы на PB.wtf

RePack

FAR CRY 5

Anonymous, добрый вечер, мы катастрофически не успеваем собрать деньги на оплату серверов, помогите нам пожалуйста 5,10,15р., для нас важна любая помощь . В качестве благодарности мы отключим Вам всю рекламу на сайте (укажите свой ник в строку Ваше имя)!

×
  
Magnet ссылка

Улица страха. Часть 1: 1994 / Fear Street Part 1: 1994 (Ли Джаньяк) [2021, ужасы, детектив, WEB-DLRip-AVC] DUB [Пифагор] от MediaBit pb.wtf

Улица страха. Часть 1: 1994 через торрент pb.wtf

Раздают: 3 [ 0 KB/s ]
Размер: 2.77 GB | Добавлен: 4 мес. 28 д. назад | Торрент скачан:163 раза
Смотреть онлайн Улица страха. Часть 1: 1994 | Скачать    Ребята, помогите собрать деньги на оплату серверов!!!

02-07-2021 17:16 Улица страха. Часть 1: 1994 Скачать торрент  


Улица страха. Часть 1: 1994 / Fear Street Part 1: 1994
Информация о фильме:
Название: Улица страха. Часть 1: 1994
Оригинальное название: Fear Street Part 1: 1994
Год выхода: 2021
Жанр: ужасы, детектив
Режиссер: Ли Джаньяк
В ролях: Майя Хоук, Шарлин Амойя, Дэвид В. Томпсон, Ной Бэйн Гаррет, Даррел Бритт-Гибсон, Эшли Цукерман, Киана Мадейра, Яна Аллен, Бенжамин Флорес мл., Джулия Ревальд

Описание: Таинственные убийства потрясают городок Шейдисайд, штат Огайо. Такое уже случалось раньше, поэтому подростки отправляются к единственной выжившей после прошлой резни, чтобы навсегда уничтожить проклятье.



Страна: США
Студия: Chernin Entertainment
Продолжительность: 01:47:17
Перевод: Профессиональный (многоголосый, закадровый) - Пифагор



Информация о файле:
Кодек: AVC
Формат: MKV
Качество: WEB-DLRip-AVC
Видео: MPEG-4 AVC, 1024x428, 24.000 fps, 2354 kbps
Аудио RU: AC3, 6 ch, 48 kHz, 448 kbps
Аудио EN: AC3, 6 ch, 48 kHz, 448 kbps
Аудио UKR: AC3, 6 ch, 48 kHz, 448 kbps
Субтитры: русские (Forced, Full), украинские (Forced, Full), английские (SDH), немецкие, испанские, финские, французские, итальянские, польские, португальские, шведские

x264 info: frame I:1572 Avg QP:10.41 size: 75692
x264 info: frame P:30577 Avg QP:13.86 size: 26846
x264 info: frame B:122323 Avg QP:16.62 size: 7761
General
Unique ID : 255660670956117612092930623973073733974 (0xC05674451E1F6AFD74CAB10379F5C956)
Complete name : D:uTorrentРипы wolf1245Fear.Street.Part1.DUB.WEB-DLRip-AVC.[wolf1245.MediaBit].mkv
Format : Matroska
Format version : Version 4
File size : 2.77 GiB
Duration : 1 h 47 min
Overall bit rate : 3 695 kb/s
Movie name : Fear.Street.Part1.DUB.WEB-DLRip-AVC.[wolf1245.MediaBit]
Encoded date : UTC 2021-07-02 17:02:36
Writing application : mkvmerge v58.0.0 ('Supper's Ready') 64-bit
Writing library : libebml v1.4.2 + libmatroska v1.6.4
Video
ID : 1
Format : AVC
Format/Info : Advanced Video Codec
Format profile : High@L4.1
Format settings : CABAC / 12 Ref Frames
Format settings, CABAC : Yes
Format settings, Reference frames : 12 frames
Codec ID : V_MPEG4/ISO/AVC
Duration : 1 h 47 min
Bit rate : 2 354 kb/s
Width : 1 024 pixels
Height : 428 pixels
Display aspect ratio : 2.40:1
Frame rate mode : Constant
Frame rate : 24.000 FPS
Color space : YUV
Chroma subsampling : 4:2:0
Bit depth : 8 bits
Scan type : Progressive
Bits/(Pixel*Frame) : 0.224
Stream size : 1.76 GiB (64%)
Title : .[wolf1245.MediaBit]
Writing library : x264 core 157 r2958 57baac4
Encoding settings : cabac=1 / ref=12 / deblock=1:-2:-2 / analyse=0x3:0x133 / me=umh / subme=10 / psy=1 / psy_rd=1.00:0.07 / mixed_ref=1 / me_range=32 / chroma_me=1 / trellis=2 / 8x8dct=1 / cqm=0 / deadzone=21,11 / fast_pskip=1 / chroma_qp_offset=-3 / threads=10 / lookahead_threads=2 / sliced_threads=0 / nr=0 / decimate=1 / interlaced=0 / bluray_compat=0 / constrained_intra=0 / bframes=10 / b_pyramid=2 / b_adapt=2 / b_bias=0 / direct=3 / weightb=1 / open_gop=0 / weightp=2 / keyint=240 / keyint_min=24 / scenecut=40 / intra_refresh=0 / rc_lookahead=60 / rc=2pass / mbtree=1 / bitrate=2354 / ratetol=1.0 / qcomp=0.60 / qpmin=0 / qpmax=69 / qpstep=4 / cplxblur=20.0 / qblur=0.5 / vbv_maxrate=50000 / vbv_bufsize=62500 / nal_hrd=none / filler=0 / ip_ratio=1.40 / aq=3:0.80
Language : English
Default : Yes
Forced : No
Audio #1
ID : 2
Format : AC-3
Format/Info : Audio Coding 3
Commercial name : Dolby Digital
Codec ID : A_AC3
Duration : 1 h 47 min
Bit rate mode : Constant
Bit rate : 448 kb/s
Channel(s) : 6 channels
Channel layout : L R C LFE Ls Rs
Sampling rate : 48.0 kHz
Frame rate : 31.250 FPS (1536 SPF)
Bit depth : 16 bits
Compression mode : Lossy
Stream size : 344 MiB (12%)
Title : Russian
Language : Russian
Service kind : Complete Main
Default : Yes
Forced : No
Audio #2
ID : 3
Format : AC-3
Format/Info : Audio Coding 3
Commercial name : Dolby Digital
Codec ID : A_AC3
Duration : 1 h 47 min
Bit rate mode : Constant
Bit rate : 448 kb/s
Channel(s) : 6 channels
Channel layout : L R C LFE Ls Rs
Sampling rate : 48.0 kHz
Frame rate : 31.250 FPS (1536 SPF)
Bit depth : 16 bits
Compression mode : Lossy
Stream size : 344 MiB (12%)
Title : Ukrainian
Language : Ukrainian
Service kind : Complete Main
Default : No
Forced : No
Audio #3
ID : 4
Format : AC-3
Format/Info : Audio Coding 3
Commercial name : Dolby Digital
Codec ID : A_AC3
Duration : 1 h 47 min
Bit rate mode : Constant
Bit rate : 448 kb/s
Channel(s) : 6 channels
Channel layout : L R C LFE Ls Rs
Sampling rate : 48.0 kHz
Frame rate : 31.250 FPS (1536 SPF)
Bit depth : 16 bits
Compression mode : Lossy
Stream size : 344 MiB (12%)
Title : Original
Language : English
Service kind : Complete Main
Default : No
Forced : No
Text #1
ID : 5
Format : D_WEBVTT/SUBTITLES
Codec ID : D_WEBVTT/SUBTITLES
Duration : 1 h 45 min
Bit rate : 7 b/s
Count of elements : 102
Stream size : 5.48 KiB (0%)
Title : Forced
Language : Russian
Default : Yes
Forced : No
Text #2
ID : 6
Format : UTF-8
Codec ID : S_TEXT/UTF8
Codec ID/Info : UTF-8 Plain Text
Duration : 1 h 45 min
Bit rate : 7 b/s
Count of elements : 102
Stream size : 5.43 KiB (0%)
Title : Forced
Language : Russian
Default : Yes
Forced : No
Text #3
ID : 7
Format : UTF-8
Codec ID : S_TEXT/UTF8
Codec ID/Info : UTF-8 Plain Text
Duration : 1 h 45 min
Bit rate : 71 b/s
Count of elements : 1160
Stream size : 55.3 KiB (0%)
Title : Russian
Language : Russian
Default : No
Forced : No
Text #4
ID : 8
Format : UTF-8
Codec ID : S_TEXT/UTF8
Codec ID/Info : UTF-8 Plain Text
Duration : 1 h 39 min
Bit rate : 7 b/s
Count of elements : 103
Stream size : 5.44 KiB (0%)
Title : Forced
Language : Ukrainian
Default : No
Forced : No
Text #5
ID : 9
Format : UTF-8
Codec ID : S_TEXT/UTF8
Codec ID/Info : UTF-8 Plain Text
Duration : 1 h 45 min
Bit rate : 70 b/s
Count of elements : 1180
Stream size : 54.3 KiB (0%)
Title : Ukrainian
Language : Ukrainian
Default : No
Forced : No
Text #6
ID : 10
Format : UTF-8
Codec ID : S_TEXT/UTF8
Codec ID/Info : UTF-8 Plain Text
Duration : 1 h 43 min
Bit rate : 64 b/s
Count of elements : 1670
Stream size : 48.5 KiB (0%)
Title : SDH
Language : English
Default : No
Forced : No
Text #7
ID : 11
Format : UTF-8
Codec ID : S_TEXT/UTF8
Codec ID/Info : UTF-8 Plain Text
Duration : 1 h 45 min
Bit rate : 43 b/s
Count of elements : 1113
Stream size : 33.8 KiB (0%)
Title : German
Language : German
Default : No
Forced : No
Text #8
ID : 12
Format : UTF-8
Codec ID : S_TEXT/UTF8
Codec ID/Info : UTF-8 Plain Text
Duration : 1 h 45 min
Bit rate : 43 b/s
Count of elements : 1142
Stream size : 33.6 KiB (0%)
Title : Spanish
Language : Spanish
Default : No
Forced : No
Text #9
ID : 13
Format : UTF-8
Codec ID : S_TEXT/UTF8
Codec ID/Info : UTF-8 Plain Text
Duration : 1 h 45 min
Bit rate : 44 b/s
Count of elements : 1044
Stream size : 34.4 KiB (0%)
Title : Finnish
Language : Finnish
Default : No
Forced : No
Text #10
ID : 14
Format : UTF-8
Codec ID : S_TEXT/UTF8
Codec ID/Info : UTF-8 Plain Text
Duration : 1 h 45 min
Bit rate : 43 b/s
Count of elements : 1158
Stream size : 33.6 KiB (0%)
Title : French
Language : French
Default : No
Forced : No
Text #11
ID : 15
Format : UTF-8
Codec ID : S_TEXT/UTF8
Codec ID/Info : UTF-8 Plain Text
Duration : 1 h 45 min
Bit rate : 44 b/s
Count of elements : 1147
Stream size : 34.4 KiB (0%)
Title : Italian
Language : Italian
Default : No
Forced : No
Text #12
ID : 16
Format : UTF-8
Codec ID : S_TEXT/UTF8
Codec ID/Info : UTF-8 Plain Text
Duration : 1 h 45 min
Bit rate : 44 b/s
Count of elements : 1171
Stream size : 34.5 KiB (0%)
Title : Polish
Language : Polish
Default : No
Forced : No
Text #13
ID : 17
Format : UTF-8
Codec ID : S_TEXT/UTF8
Codec ID/Info : UTF-8 Plain Text
Duration : 1 h 45 min
Bit rate : 42 b/s
Count of elements : 1140
Stream size : 32.5 KiB (0%)
Title : Portuguese
Language : Portuguese
Default : No
Forced : No
Text #14
ID : 18
Format : UTF-8
Codec ID : S_TEXT/UTF8
Codec ID/Info : UTF-8 Plain Text
Duration : 1 h 45 min
Bit rate : 42 b/s
Count of elements : 999
Stream size : 32.6 KiB (0%)
Title : Swedish
Language : Swedish
Default : No
Forced : No
Релиз от: &
Автор релиза:
pb.wtf



Скачать Улица страха. Часть 1: 1994 через торрент https://i115.fastpic.ru/big/2021/0702/3b/f80c9f52ca2f7d97d6f1c26b64812f3b.jpg Скачать, смотреть онлайн Улица страха. Часть 1: 1994 бесплантно в хорошем качестве Описание: Таинственные убийства потрясают городок Шейдисайд, штат Огайо. Такое уже случалось раньше, поэтому подростки отправляются к ... 10 10 7
Торрент: Зарегистрирован [2021-07-02 17:16] · скачан: 163 раз
Статус: √ проверено
Размер: 2.77 GB
Как cкачать? Как скачать Улица страха. Часть 1: 1994 через торрент | UTorrent

28-11-2019 20:33  

Отключить всю рекламу на сайте

    Дорогой пользователь! Огромная просьба, поблагодарите релизера, оцените раздачу и оставьте свои комментарий, если Вы скачали Улица страха. Часть 1: 1994 через торрент бесплатно!
    Комментировать посты могут только пользователи прошедшие не сложную регистрацию
    Показать сообщения:    

    Улица страха. Часть 1: 1994 через торрент
    Скачать бесплатно Улица страха. Часть 1: 1994
    Улица страха. Часть 1: 1994 скачать торрент
    Улица страха. Часть 1: 1994 смотреть онлайн
    Cкачать фильм Улица страха. Часть 1: 1994 бесплатно
    Улица страха. Часть 1: 1994 скачать торрент в хорошем качестве
    Улица страха. Часть 1: 1994 смотреть онлайн бесплатно в хорошем качестве


    Вы не можете начинать темы
    Вы не можете отвечать на сообщения
    Вы не можете редактировать свои сообщения
    Вы не можете удалять свои сообщения
    Вы не можете голосовать в опросах
    Вы не можете прикреплять файлы к сообщениям
    Вы можете скачивать файлы