Лицензия

MVO

1

1 сезон

Лицензия

Лицензия

13

MVO

1 сезон

Deluxe Edition

pack

Рекомендуем

30

Repack

ВАЖНО

ВАЖНО

Ghostwire

RePack

jed

RePack

fifa19

RePack

RDR2

RePack

NEED FOR SPEED™ PAYBACK

RePack

Кинопоиск HD

 Острые козырьки 6 сезон

6 сезон

FAR CRY 6

RePack

Лицензия

MVO

1

1 сезон

1 сезон

Лицензия

  

Монстры, созданные человеком / Боевой робот номер 4 / Monsters of Man (Марк Тойя) [2020, Фантастика, боевик, BD Riemux 1080p] DUB [iTunes]

Монстры, созданные человеком через торрент pb.wtf

Размер: 30.75 GB | Добавлен: 1 год 2 мес. назад | Торрент скачан:38 раз
Смотреть онлайн Монстры, созданные человеком | Скачать   

03-07-2021 03:30 Монстры, созданные человеком Скачать торрент  

Монстры, созданные человеком | Боевой робот номер 4
Monsters of Man

Год выпуска: 2020
Страна: Австралия
Студия: 11:11 Entertainment, Hanuman Films, MRT Films Pty Ltd
Жанр: Фантастика, боевик
Продолжительность: 02:11:52
Перевод: Дублированный | iTunes
Субтитры: Русские (Forced, full), английские

Режиссер: Марк Тойя

rating

В ролях: Нил МакДонаф, Хосе Росете, Алексис Марьянович, Джессика Блэкмор, Дэвид Хэверти, Конрад Прэтт, Кейли Тран, Джорди Тулленерс, Дэвид Самартин, Тейлор Ли Эдвардс, Бретт Тьютор, Пол Хаапаниеми, Райан Хью, Ли Тай, Ма Райнет

Описание: В далёких джунглях Камбоджи ЦРУ проводит несанкционированные испытания боевых роботов с искусственным интеллектом, созданных частной компанией. Расстреливая банду вооружённых наркоторговцев, андроиды уничтожают и жителей лесной деревни, невольными свидетелями чего становится живущий там же бывший морпех и группа американских студентов-медиков, участвующих в волонтёрской программе. Им удаётся почти без потерь сбежать в джунгли, но ЦРУ свидетели не нужны.

Качество: BD Riemux 1080p
Формат: MKV

Видео: MPEG-4 AVC, 1920x1080, 29.8 Mbit/s, 24.000 fps
Аудио#1: 48 kHz, AC3, 5.1, 384 Kbps | iTunes | RUS |
Аудио#2: 48 kHz, DTS-HD MA, 5.1, 3210 Kbps | Оригинал | ENG |
скриншот  скриншот  скриншот  скриншот  скриншот  

General
Unique ID : 327128316899656868851774813599033839303 (0xF61A9F4316131FB4664C115F8979CEC7)
Complete name : F:VideoMonsters.of.Man.2020.BDREMUX.1080p.seleZen.mkv
Format : Matroska
Format version : Version 4
File size : 30.7 GiB
Duration : 2 h 11 min
Overall bit rate mode : Variable
Overall bit rate : 33.4 Mb/s
Movie name : Monsters of Man 2020 from seleZen
Encoded date : UTC 2021-07-03 03:07:12
Writing application : mkvmerge v55.0.0 ('Waiting For Space') 64-bit
Writing library : libebml v1.4.2 + libmatroska v1.6.4

Video
ID : 1
Format : AVC
Format/Info : Advanced Video Codec
Format profile : [email protected]
Format settings : CABAC / 4 Ref Frames
Format settings, CABAC : Yes
Format settings, Reference : 4 frames
Codec ID : V_MPEG4/ISO/AVC
Duration : 2 h 11 min
Bit rate mode : Variable
Bit rate : 29.8 Mb/s
Maximum bit rate : 37.0 Mb/s
Width : 1 920 pixels
Height : 1 080 pixels
Display aspect ratio : 16:9
Frame rate mode : Constant
Frame rate : 24.000 FPS
Color space : YUV
Chroma subsampling : 4:2:0
Bit depth : 8 bits
Scan type : Progressive
Bits/(Pixel*Frame) : 0.598
Stream size : 27.4 GiB (89%)
Language : French
Default : Yes
Forced : No

Audio #1
ID : 2
Format : AC-3
Format/Info : Audio Coding 3
Commercial name : Dolby Digital
Codec ID : A_AC3
Duration : 2 h 11 min
Bit rate mode : Constant
Bit rate : 384 kb/s
Channel(s) : 6 channels
Channel layout : L R C LFE Ls Rs
Sampling rate : 48.0 kHz
Frame rate : 31.250 FPS (1536 SPF)
Compression mode : Lossy
Stream size : 362 MiB (1%)
Title : iTunes
Language : Russian
Service kind : Complete Main
Default : Yes
Forced : Yes

Audio #2
ID : 3
Format : DTS XLL
Format/Info : Digital Theater Systems
Commercial name : DTS-HD Master Audio
Codec ID : A_DTS
Duration : 2 h 11 min
Bit rate mode : Variable
Bit rate : 3 210 kb/s
Channel(s) : 6 channels
Channel layout : C L R Ls Rs LFE
Sampling rate : 48.0 kHz
Frame rate : 93.750 FPS (512 SPF)
Bit depth : 24 bits
Compression mode : Lossless
Stream size : 2.96 GiB (10%)
Title : Original
Language : English
Default : No
Forced : No

Text #1
ID : 4
Format : UTF-8
Codec ID : S_TEXT/UTF8
Codec ID/Info : UTF-8 Plain Text
Duration : 2 h 11 min
Bit rate : 3 b/s
Count of elements : 107
Stream size : 3.80 KiB (0%)
Title : Forced
Language : Russian
Default : Yes
Forced : Yes

Text #2
ID : 5
Format : UTF-8
Codec ID : S_TEXT/UTF8
Codec ID/Info : UTF-8 Plain Text
Duration : 2 h 11 min
Bit rate : 76 b/s
Count of elements : 1925
Stream size : 73.6 KiB (0%)
Title : Full
Language : Russian
Default : No
Forced : No

Text #3
ID : 6
Format : UTF-8
Codec ID : S_TEXT/UTF8
Codec ID/Info : UTF-8 Plain Text
Duration : 2 h 4 min
Bit rate : 43 b/s
Count of elements : 1602
Stream size : 39.8 KiB (0%)
Title : Full
Language : English
Default : No
Forced : No

Menu
00:00:00.000 : fr:Глава 01
00:12:10.083 : fr:Глава 02
00:21:34.375 : fr:Глава 03
00:32:43.292 : fr:Глава 04
00:54:11.042 : fr:Глава 05
01:07:39.625 : fr:Глава 06
01:18:08.125 : fr:Глава 07
01:30:46.792 : fr:Глава 08
01:39:52.208 : fr:Глава 09
01:51:40.000 : fr:Глава 10
02:03:41.458 : fr:Глава 11




Скачать Монстры, созданные человеком через торрент https://i115.fastpic.ru/big/2021/0703/b9/22453996a0560f985769c3f457746eb9.jpg Скачать, смотреть онлайн Монстры, созданные человеком бесплантно в хорошем качестве Описание: В далёких джунглях Камбоджи ЦРУ проводит несанкционированные испытания боевых роботов с искусственным интеллектом, созданных ... 10 10 4
Торрент: Зарегистрирован [2021-07-03 03:30] · скачан: 38 раз
Статус: √ проверено
Размер: 30.75 GB
Как cкачать? Как скачать Монстры, созданные человеком через торрент | UTorrent

% Раздел Тема Автор DL S | L
Ultra HD (UHD: 2K, 4K, 8K) [ 52.41 GB ] Монстры, созданные человеком / Боевой робот номер 4 / Monsters of Man | DUB | 2160p bober100 Скачать
1 | 0
Фильмы 2019-2020 [DVDrip, WEB-DLRip, HDrip] (DUB, MVO) [ 3.4 GB ] Боевой робот номер 4 / Монстры, созданные человеком / Monsters of Man | КиноПоиск HD | Боевой робот номер 4 / Монстры, созданные человеком / Monsters of Man (Марк Тойя Lithuania Скачать
5 | 0
Фильмы [HD 720p, 1080p] (Хороший звук DUB, MVO) [ 9.45 GB ] Монстры, созданные человеком / Боевой робот номер 4 / Monsters of Man | iTunes | 1080p bober100 Скачать
2 | 0
Фильмы [HD 720p, 1080p] (Хороший звук DUB, MVO) [ 4.35 GB ] Монстры, созданные человеком / Боевой робот номер 4 / Monsters of Man | iTunes | 720p bober100 Скачать
3 | 0
Фильмы 2019-2020 [DVDrip, WEB-DLRip, HDrip] (DUB, MVO) [ 1.46 GB ] Монстры, созданные человеком / Боевой робот номер 4 / Monsters of Man | iTunes | BDRip bober100 Скачать
3 | 0
Фильмы 2019-2020 [DVDrip, WEB-DLRip, HDrip] (DUB, MVO) [ 2.12 GB ] Монстры, созданные человеком / Боевой робот номер 4 / Monsters of Man | iTunes | BDRip bober100 Скачать
4 | 0
Фильмы с авторской озвучкой [ 1.82 GB ] Монстры, созданные человеком / Monsters of Man | AVO | DLRip-AVC Lithuania Скачать
1 | 0

28-11-2019 20:33  

Отключить вcю реклaмy на сайте

    Дорогой пользователь! Огромная просьба, поблагодарите релизера, оцените раздачу и оставьте свои комментарий, если Вы скачали Монстры, созданные человеком через торрент бесплатно!!
    Комментировать посты могут только пользователи прошедшие не сложную регистрацию
    Показать сообщения:    


    Монстры, созданные человеком через торрент
    Скачать бесплатно Монстры, созданные человеком
    Монстры, созданные человеком скачать торрент
    Монстры, созданные человеком смотреть онлайн
    Cкачать фильм Монстры, созданные человеком бесплатно
    Монстры, созданные человеком скачать торрент в хорошем качестве
    Монстры, созданные человеком смотреть онлайн бесплатно в хорошем качестве
    Вы не можете начинать темы
    Вы не можете отвечать на сообщения
    Вы не можете редактировать свои сообщения
    Вы не можете удалять свои сообщения
    Вы не можете голосовать в опросах
    Вы не можете прикреплять файлы к сообщениям
    Вы можете скачивать файлы