Всегда рабочее зеркало просто перед .vidak.icu напиши любое слово или цифру, Пример http://5p2.vidak.icu

>

7.4

iTunes

7.4

2 сезон

6.6

iTunes

1

7.4

2 сезон

7.2

iTunes

6.0

MVO

13

6.1

iTunes

8.3

Пиратка

30

ULTIMATE

pack

9.9

Лицензия

ВАЖНО

ИГРА 18+

pack

7.3

RePack

MK11

7.7

RePack

jed

7.8

RePack

fifa19

8.5

RePack

RDR2

RePack

NEED FOR SPEED™ PAYBACK

1 сезон

9 сезон

Бесстыжие 9 сезон

Все сериалы

все сериалы на PB.wtf

RePack

FAR CRY 5

Anonymous, доброй ночи, мы катастрофически не успеваем собрать деньги на оплату серверов, помогите нам пожалуйста 5,10,15р., для нас важна любая помощь . В качестве благодарности мы отключим Вам всю рекламу на сайте (укажите свой ник в строку Ваше имя)!

×
  
Magnet ссылка

Ангел мести / Vanquish (Джордж Галло) [2021, Боевик, триллер, криминал, BDRip 720p] DUB (rus, ukr) [iTunes] pb.wtf

Ангел мести через торрент pb.wtf

Размер: 5.99 GB | Добавлен: 6 мес. назад | Торрент скачан:114 раз
Смотреть онлайн Ангел мести | Скачать    Ребята, помогите собрать деньги на оплату серверов!!!

04-07-2021 17:27 Ангел мести Скачать торрент  

Ангел мести | Vanquish
Год выпуска: 2021
Страна: США
Студия: Capstone Group, March On Productions
Жанр: Боевик, триллер, криминал
Продолжительность: 01:34:08
Перевод: Дублированный | iTunes
Субтитры: Русские (Full), английские

Режиссер: Джордж Галло

rating

В ролях: Руби Роуз, Морган Фриман, Патрик Малдун, Ник Валлелонга, Джули Лотт, Екатерина Бэйкер, Джоэль Майкли, Пол Сэмпсон, Крис Маллинэкс, Майлз Долеак, Эли Бардха, Ричард Сальваторе, Реджинальд Робинсон, Билл Лакетт, Нат Адамс, Дилан Флэшнер, Айван Готье, Леонард Волднер

Описание: После выхода на пенсию бывший комиссар полиции понял, что прикрывать продажных детективов было ошибкой. Но чтобы подчистить за собой город, он выбирает не самый гуманный способ — похитив невинного ребенка, он шантажирует его мать. Пытаясь спасти дочь, женщина становится орудием в войне против разбушевавшегося криминала. Впрочем, теперь ее гнева хватит не только на преступников.

Качество: BDRip 720p
Формат: MKV

Видео: MPEG-4 AVC, 7704 Кбит/с, 1280x640
Аудио #01: AC3, 6 ch, 384 Кбит/с | RUS
Аудио #02: AC3, 6 ch, 384 Кбит/с | UKR
Аудио #03: AC3, 6 ch, 640 Кбит/с | ENG
скриншот  скриншот  скриншот  скриншот  

Complete name : Angel.mesti.2021.BDRip.720p.ELEKTRI4KA.UNIONGANG.mkv
Format : Matroska
Format version : Version 4
File size : 5.99 GiB
Duration : 1 h 34 min
Overall bit rate : 9 114 kb/s
Movie name : Angel.mesti.2021.BDRip.720p.ELEKTRI4KA.UNIONGANG.
Encoded date : UTC 2021-07-03 15:02:53
Writing application : mkvmerge v8.3.0 ('Over the Horizon') 64bit
Writing library : libebml v1.3.1 + libmatroska v1.4.2

Video
ID : 1
Format : AVC
Format/Info : Advanced Video Codec
Format profile : High@L4.1
Format settings : CABAC / 10 Ref Frames
Format settings, CABAC : Yes
Format settings, Reference frames : 10 frames
Codec ID : V_MPEG4/ISO/AVC
Duration : 1 h 34 min
Bit rate : 7 704 kb/s
Width : 1 280 pixels
Height : 640 pixels
Display aspect ratio : 2.000
Frame rate mode : Constant
Frame rate : 23.976 (24000/1001) FPS
Color space : YUV
Chroma subsampling : 4:2:0
Bit depth : 8 bits
Scan type : Progressive
Bits/(Pixel*Frame) : 0.392
Stream size : 5.07 GiB (85%)
Writing library : x264 core 161 r3048+58M ~ Encoded by Mocunaman in Portugal
Encoding settings : cabac=1 / ref=10 / deblock=1:-3:-3 / analyse=0x3:0x113 / me=umh / subme=11 / psy=1 / fade_compensate=0.00 / psy_rd=1.00:0.00 / mixed_ref=1 / me_range=32 / chroma_me=1 / trellis=2 / 8x8dct=1 / cqm=0 / deadzone=21,11 / fast_pskip=0 / chroma_qp_offset=-2 / threads=20 / lookahead_threads=5 / sliced_threads=0 / nr=0 / decimate=0 / interlaced=0 / bluray_compat=0 / constrained_intra=0 / fgo=0 / bframes=16 / b_pyramid=2 / b_adapt=2 / b_bias=0 / direct=3 / weightb=1 / open_gop=0 / weightp=2 / keyint=250 / keyint_min=23 / scenecut=40 / intra_refresh=0 / rc_lookahead=60 / rc=crf / mbtree=0 / crf=19.0000 / qcomp=0.60 / qpmin=0:0:0 / qpmax=69:69:69 / qpstep=4 / vbv_maxrate=62500 / vbv_bufsize=78125 / crf_max=0.0 / nal_hrd=none / filler=0 / ip_ratio=1.30 / pb_ratio=1.20 / aq=3:0.85 / aq-sensitivity=10.00 / aq-factor=1.00:1.00:1.00 / aq2=0 / aq3=0 / zones=0,9168,crf=17/9216,12984,crf=18/12998,17096,crf=18/17120,34185,crf=17/34209,45177,crf=17/45201,72081,crf=17.5/73281,75535,crf=18/79783,83563,crf=17.5/83564,85830,crf=18/85831,89444,crf=18/89492,107242,crf=17/107266,122050,crf=18/122051,131269,crf=16
Language : English
Default : Yes
Forced : No
Color range : Limited
Color primaries : BT.709
Transfer characteristics : BT.709
Matrix coefficients : BT.709

Audio #1
ID : 2
Format : AC-3
Format/Info : Audio Coding 3
Commercial name : Dolby Digital
Codec ID : A_AC3
Duration : 1 h 34 min
Bit rate mode : Constant
Bit rate : 384 kb/s
Channel(s) : 6 channels
Channel layout : L R C LFE Ls Rs
Sampling rate : 48.0 kHz
Frame rate : 31.250 FPS (1536 SPF)
Compression mode : Lossy
Stream size : 259 MiB (4%)
Title : DUB (iTunes)
Language : Russian
Service kind : Complete Main
Default : Yes
Forced : Yes

Audio #2
ID : 3
Format : AC-3
Format/Info : Audio Coding 3
Commercial name : Dolby Digital
Codec ID : A_AC3
Duration : 1 h 34 min
Bit rate mode : Constant
Bit rate : 384 kb/s
Channel(s) : 6 channels
Channel layout : L R C LFE Ls Rs
Sampling rate : 48.0 kHz
Frame rate : 31.250 FPS (1536 SPF)
Compression mode : Lossy
Stream size : 259 MiB (4%)
Title : DUB (iTunes)
Language : Ukrainian
Service kind : Complete Main
Default : No
Forced : No

Audio #3
ID : 4
Format : AC-3
Format/Info : Audio Coding 3
Commercial name : Dolby Digital
Codec ID : A_AC3
Duration : 1 h 34 min
Bit rate mode : Constant
Bit rate : 640 kb/s
Channel(s) : 6 channels
Channel layout : L R C LFE Ls Rs
Sampling rate : 48.0 kHz
Frame rate : 31.250 FPS (1536 SPF)
Compression mode : Lossy
Stream size : 431 MiB (7%)
Title : Original
Language : English
Service kind : Complete Main
Default : No
Forced : No

Text #1
ID : 5
Format : UTF-8
Codec ID : S_TEXT/UTF8
Codec ID/Info : UTF-8 Plain Text
Duration : 1 h 27 min
Bit rate : 62 b/s
Count of elements : 869
Stream size : 40.0 KiB (0%)
Title : Full
Language : Russian
Default : Yes
Forced : Yes

Text #2
ID : 6
Format : UTF-8
Codec ID : S_TEXT/UTF8
Codec ID/Info : UTF-8 Plain Text
Duration : 54 min 19 s
Bit rate : 1 b/s
Count of elements : 30
Stream size : 706 Bytes (0%)
Title : Forced
Language : English
Default : No
Forced : No

Text #3
ID : 7
Format : UTF-8
Codec ID : S_TEXT/UTF8
Codec ID/Info : UTF-8 Plain Text
Duration : 1 h 25 min
Bit rate : 38 b/s
Count of elements : 868
Stream size : 23.7 KiB (0%)
Title : Full .srt
Language : English
Default : No
Forced : No

Text #4
ID : 8
Format : UTF-8
Codec ID : S_TEXT/UTF8
Codec ID/Info : UTF-8 Plain Text
Duration : 1 h 30 min
Bit rate : 43 b/s
Count of elements : 1126
Stream size : 28.8 KiB (0%)
Title : SDH .srt
Language : English
Default : No
Forced : No

Menu
00:00:00.000 : en:Chapter 01
00:06:17.544 : en:Chapter 02
00:11:53.087 : en:Chapter 03
00:16:04.881 : en:Chapter 04
00:23:06.051 : en:Chapter 05
00:26:23.540 : en:Chapter 06
00:33:11.531 : en:Chapter 07
00:42:08.943 : en:Chapter 08
00:44:56.235 : en:Chapter 09
00:50:56.679 : en:Chapter 10
00:55:27.491 : en:Chapter 11
01:02:05.597 : en:Chapter 12
01:08:37.280 : en:Chapter 13
01:14:32.927 : en:Chapter 14
01:18:49.642 : en:Chapter 15
01:25:52.105 : en:Chapter 16

pb.wtf



Скачать Ангел мести через торрент http://c.radikal.ru/c25/2104/86/63b68d1e9657.jpg Скачать, смотреть онлайн Ангел мести бесплантно в хорошем качестве Описание: После выхода на пенсию бывший комиссар полиции понял, что прикрывать продажных детективов было ошибкой. Но чтобы подчистить за ... 10 10 5
Торрент: Зарегистрирован [2021-07-04 17:27] · скачан: 114 раз
Статус: √ проверено
Размер: 5.99 GB
Как cкачать? Как скачать Ангел мести через торрент | UTorrent

% Раздел Тема Автор DL S | L
Фильмы 2021 [DVDrip, WEB-DLRip, HDrip] (DUB, MVO) [ 747 MB ] Ангел мести / Vanquish [2021 НDRip] bober100 Скачать
1 | 0
Фильмы 2021 [DVDrip, WEB-DLRip, HDrip] (DUB, MVO) [ 1.42 GB ] Ангел мести / Vanquish [2021 BDRip] - Twi7ter Скачать
7 | 0
Фильмы 2021 [DVDrip, WEB-DLRip, HDrip] (DUB, MVO) [ 2.05 GB ] Ангел мести / Vanquish [2021 HDRip-AVC] от MediaBit Lithuania Скачать
1 | 0
Фильмы [HD 720p, 1080p] (Хороший звук DUB, MVO) [ 10.96 GB ] Ангел мести / Vanquish [2021 BDRip 1080p] DUB bober100 Скачать
1 | 0
Фильмы 2021 [DVDrip, WEB-DLRip, HDrip] (DUB, MVO) [ 1.46 GB ] Ангел мести / Vanquish [2021 НDRip] bober100 Скачать
2 | 0
Фильмы 2021 [DVDrip, WEB-DLRip, HDrip] (DUB, MVO) [ 2.05 GB ] Ангел мести / Vanquish [2021 НDRip] DUB bober100 Скачать
1 | 0

28-11-2019 20:33  

Отключить всю рекламу на сайте

08-07-2021 13:35 Ангел мести Скачать торрент  

на 4 баллаpb.wtf



09-07-2021 17:04 Ангел мести Скачать торрент  

Качал, разумеется из-за Моргана нашего с вами Фримена. Но видать даже у него ипотека не выплачена, раз он в таком гэ снимается.pb.wtf



    Дорогой пользователь! Огромная просьба, поблагодарите релизера, оцените раздачу и оставьте свои комментарий, если Вы скачали Ангел мести через торрент бесплатно!
    Комментировать посты могут только пользователи прошедшие не сложную регистрацию
    Показать сообщения:    

    Ангел мести через торрент
    Скачать бесплатно Ангел мести
    Ангел мести скачать торрент
    Ангел мести смотреть онлайн
    Cкачать фильм Ангел мести бесплатно
    Ангел мести скачать торрент в хорошем качестве
    Ангел мести смотреть онлайн бесплатно в хорошем качестве


    Вы не можете начинать темы
    Вы не можете отвечать на сообщения
    Вы не можете редактировать свои сообщения
    Вы не можете удалять свои сообщения
    Вы не можете голосовать в опросах
    Вы не можете прикреплять файлы к сообщениям
    Вы можете скачивать файлы