Присоединяйтесь к нам в Telegram!, здесь всегда актуальный адрес сайта, оперативная поддержка и многое другое!!

>

5.9

iTunes

7.4

iTunes

9.4

1 сезон

1

7.4

2 сезон

7.2

iTunes

7.3

1 сезон

13

6.1

iTunes

8.3

Пиратка

30

ULTIMATE

pack

9.9

Лицензия

ВАЖНО

ИГРА 18+

pack

7.3

RePack

MK11

7.7

RePack

jed

7.8

RePack

fifa19

8.5

RePack

RDR2

RePack

NEED FOR SPEED™ PAYBACK

5 сезон

9 сезон

Бесстыжие 9 сезон

Все сериалы

все сериалы на PB.wtf

RePack

FAR CRY 5

Anonymous, доброе утро, мы катастрофически не успеваем собрать деньги на оплату серверов, помогите нам пожалуйста 5,10,15р., для нас важна любая помощь . В качестве благодарности мы отключим Вам всю рекламу на сайте (укажите свой ник в строку Ваше имя)!

×
  
Magnet ссылка

Спиритический сеанс / Seance (Саймон Баррет)(AMAZON)[2021 г., ужасы, WEB-DLRip, Дубляж iTunes] pb.wtf

Спиритический сеанс через торрент pb.wtf

Размер: 707 MB | Добавлен: 5 мес. 1 д. назад | Торрент скачан:11 раз
Смотреть онлайн Спиритический сеанс | Скачать    Ребята, помогите собрать деньги на оплату серверов!!!

04-07-2021 18:40 Спиритический сеанс Скачать торрент  

Спиритический сеанс / Seance
Год выпуска: 2021
Страна: США / Dark Castle EntertainmentHanWay FilmsIngenious Media
Жанр: ужасы
Продолжительность: 01:32:40
Перевод: Дубляж (iTunes)
«Бойся призраков закрытой школы»
Субтитры: русские форсированные – вшитые

Режиссер: Саймон Баррет

rating

В ролях: Сьюки Уотерхаус, Мэдисен Бити, Инанна Саркис, Элла-Рэй Смит, Стефани Сай, Джульет Амара, Джейд Майкл, Симус Паттерсон, Марина Стивенсон Керр, Меган Бест

Описание: Камилл — новенькая в элитной женской школе, где недавно при загадочных обстоятельствах погибла одна ученица. Когда умирает очередная девушка, Камилл выясняет, что несчастья начали случаться после спиритического сеанса, во время которого девушки в шутку вызывали дух самоубийцы, покончившей с собой в этих стенах много лет назад.

Качество: WEB-DLRip
Формат: AVI
Видео кодек: DivX
Аудио кодек: MP3
Видео: 640x272 (2.35:1), 24.000 fps, DivX Codec 4.x ~925 kbps avg, 0.22 bit/pixel
Аудио: 48 kHz, MPEG Layer 3, 2 ch, ~128.00 kbps avg






Общее
Полное имя : G:\ФИЛЬМЫ\Спиритический сеанс.2021.D.WEB-DLRip(AMAZON).avi
Формат : AVI
Формат/Информация : Audio Video Interleave
Размер файла : 707 Мбайт
Продолжительность : 1 ч. 32 м.
Режим общего битрейта : Переменный
Общий поток : 1 067 Кбит/сек
Программа кодирования : VirtualDubMod 1.5.10.3 | www.virtualdub-fr.org || (build 2550/release)
Библиотека кодирования : VirtualDubMod build 2550/release

Видео
Идентификатор : 0
Формат : MPEG-4 Visual
Профиль формата : Advanced Simple@L5
Настройки формата : BVOP2
Параметр BVOP формата : 2
Параметр QPel формата : Нет
Параметр GMC формата : Без точки перехода
Параметр матрицы формата : Default (MPEG)
Идентификатор кодека : DIVX
Идентификатор кодека/Информация : Project Mayo
Идентификатор кодека/Подсказка : DivX 4
Продолжительность : 1 ч. 32 м.
Битрейт : 926 Кбит/сек
Ширина : 640 пикселей
Высота : 272 пикселя
Соотношение сторон : 2,35:1
Частота кадров : 24,000 кадра/сек
Цветовое пространство : YUV
Субдискретизация насыщенности : 4:2:0
Битовая глубина : 8 бит
Тип развёртки : Прогрессивная
Метод сжатия : С потерями
Бит/(Пиксели*Кадры) : 0.222
Размер потока : 614 Мбайт (87%)
Библиотека кодирования : XviD 1.2.1 (UTC 2008-12-04)

Аудио
Идентификатор : 1
Формат : MPEG Audio
Версия формата : Version 1
Профиль формата : Layer 3
Настройки формата : Joint stereo / MS Stereo
Идентификатор кодека : 55
Идентификатор кодека/Подсказка : MP3
Продолжительность : 1 ч. 32 м.
Вид битрейта : Переменный
Битрейт : 128 Кбит/сек
Каналы : 2 канала
Частота : 48,0 КГц
Метод сжатия : С потерями
Размер потока : 84,8 Мбайт (12%)
Выравнивание : Соединение по промежуткам
Продолжительность промежутка : 24 мс. (0,58 видеокадр)
Время предзагрузки промежутка : 486 мс.
Библиотека кодирования : LAME3.99r
Настройки программы : -m j -V 4 -q 2 -lowpass 17 -b 128

Report created by : MediaInfoLib - v21.03
Report created on : UTC 2021-07-04 18:15:50

pb.wtf



Скачать Спиритический сеанс через торрент https://pic1.kartinco.top/new/img/2021-07/04/8xca89de2xoixfc83hp7na9bf.jpg Скачать, смотреть онлайн Спиритический сеанс бесплантно в хорошем качестве Описание: Камилл — новенькая в элитной женской школе, где недавно при загадочных обстоятельствах погибла одна ученица. Когда умирает ... 10 10 1
Торрент: Зарегистрирован [2021-07-04 18:40] · скачан: 11 раз
Статус: √ проверено
Размер: 707 MB
Как cкачать? Как скачать Спиритический сеанс через торрент | UTorrent

% Раздел Тема Автор DL S | L
Фильмы 2021 [DVDrip, WEB-DLRip, HDrip] (DUB, MVO) [ 1.46 GB ] Спиритический сеанс / Seance [2021 BDRip] bober100 Скачать
1 | 0
Фильмы (Blu-ray, BD-Remux, HDDVD) [ 13.03 GB ] Спиритический сеанс / Seance [2021 BD Remux 1080p] bober100 Скачать
1 | 0
Фильмы [HD 720p, 1080p] (Хороший звук DUB, MVO) [ 2.63 GB ] Спиритический сеанс / Seance [2021 BDRip 720p] bober100 Скачать
2 | 0
Фильмы [HD 720p, 1080p] (Хороший звук DUB, MVO) [ 7.34 GB ] Спиритический сеанс / Seance [2021 BDRip 1080p] bober100 Скачать
1 | 0
Фильмы (WEB-DL 720p, 1080p) [ 3.48 GB ] Спиритический сеанс / Seance [2021 WEB-DL 1080p] bober100 Скачать
1 | 0
Фильмы 2021 [DVDrip, WEB-DLRip, HDrip] (DUB, MVO) [ 1.45 GB ] Спиритический сеанс / Seance [2021 WEB-DLRip] MVO [HDrezka Studio] bober100 Скачать
2 | 0
Фильмы 2011 [ 1.37 GB ] Спиритический сеанс / Seance: The Summoning [2011 DVDRip] JhaWithYou Скачать
1 | 0

28-11-2019 20:33  

Отключить всю рекламу на сайте

    Дорогой пользователь! Огромная просьба, поблагодарите релизера, оцените раздачу и оставьте свои комментарий, если Вы скачали Спиритический сеанс через торрент бесплатно!
    Комментировать посты могут только пользователи прошедшие не сложную регистрацию
    Показать сообщения:    

    Спиритический сеанс через торрент
    Скачать бесплатно Спиритический сеанс
    Спиритический сеанс скачать торрент
    Спиритический сеанс смотреть онлайн
    Cкачать фильм Спиритический сеанс бесплатно
    Спиритический сеанс скачать торрент в хорошем качестве
    Спиритический сеанс смотреть онлайн бесплатно в хорошем качестве


    Вы не можете начинать темы
    Вы не можете отвечать на сообщения
    Вы не можете редактировать свои сообщения
    Вы не можете удалять свои сообщения
    Вы не можете голосовать в опросах
    Вы не можете прикреплять файлы к сообщениям
    Вы можете скачивать файлы