Достать ножи: Стеклянная луковица

MVO

Добыча

Дубляж

Уэнсдэй

1 сезон

Тор

Дубляж

13 клиническая

1 сезон

Жестокая ночь

MVO

Одни из нас

1 сезон

Deluxe

pack

Рекомендуем

30

Пиратка

ВАЖНО

ВАЖНО

Ghostwire

Пиратка

jed

RePack

nioh2

RePack

RDR2

RePack

NEED FOR SPEED™ PAYBACK

RePack

скачать торрент

Кинопоиск HD

Острые козырьки 6 сезон

6 сезон

FAR CRY 6

RePack

скачать торрент

Лицензия

скачать торрент

MVO

1

1 сезон

скачать торрент

1 сезон

скачать торрент

Лицензия

  

Ангел мести / Vanquish (Джордж Галло) [2021, Боевик, триллер, криминал, HDRip-AVC] Дубляж [iTunes] от MediaBit

Ангел мести через торрент pb.wtf

Размер: 2.05 GB | Добавлен: 1 год 7 мес. назад | Торрент скачан:106 раз
Смотреть онлайн | Скачать | Поддержите нас   

05-07-2021 07:04 Ангел мести Скачать торрент  


Ангел мести / Vanquish
Название: Ангел мести
Оригинальное название: Vanquish
Год выхода: 2021
Жанр: Боевик, триллер, криминал
Режиссер: Джордж Галло
В ролях: Руби Роуз, Морган Фриман, Патрик Малдун, Ник Валлелонга, Джули Лотт, Екатерина Бэйкер, Джоэль Майкли, Пол Сэмпсон, Крис Маллинэкс, Майлз Долеак, Эли Бардха, Ричард Сальваторе, Реджинальд Робинсон, Билл Лакетт, Нат Адамс, Дилан Флэшнер, Айван Готье, Леонард Волднер

Описание: После выхода на пенсию бывший комиссар полиции понял, что прикрывать продажных детективов было ошибкой. Но чтобы подчистить за собой город, он выбирает не самый гуманный способ — похитив невинного ребенка, он шантажирует его мать. Пытаясь спасти дочь, женщина становится орудием в войне против разбушевавшегося криминала. Впрочем, теперь ее гнева хватит не только на преступников.



Страна: США
Студия: Capstone Group, March On Productions
Продолжительность: 01:34:08
Перевод: Дублированный - iTunes



Информация о файле:
Кодек: AVC
Формат: MKV
Качество: HDRip-AVC
Видео: MPEG-4 AVC, 1024x512, 23.976 fps, 1899 kbps
Аудио RU: AC3, 6 ch, 48 kHz, 384 kbps
Аудио EN: AC3, 6 ch, 48 kHz, 448 kbps
Аудио UKR: AC3, 6 ch, 48 kHz, 384 kbps
Субтитры: Русские (Full), английские
Навигация по главам: Да

x264 info: frame I:1164 Avg QP:14.17 size: 69994
x264 info: frame P:26834 Avg QP:17.85 size: 20391
x264 info: frame B:107434 Avg QP:19.97 size: 6628
General
Unique ID : 55516351620782857648649299859972449229 (0x29C40F764E646F59BDF16B17BB1E63CD)
Complete name : D:uTorrentРипы wolf1245Vanquish.2021.Дубляж.НDRip-AVC.[wolf1245.MediaBit].mkv
Format : Matroska
Format version : Version 4
File size : 2.05 GiB
Duration : 1 h 34 min
Overall bit rate : 3 117 kb/s
Movie name : Vanquish.2021.Дубляж.НDRip-AVC.[wolf1245.MediaBit]
Encoded date : UTC 2021-07-05 06:53:52
Writing application : mkvmerge v58.0.0 ('Supper's Ready') 64-bit
Writing library : libebml v1.4.2 + libmatroska v1.6.4
Video
ID : 1
Format : AVC
Format/Info : Advanced Video Codec
Format profile : [email protected]
Format settings : CABAC / 14 Ref Frames
Format settings, CABAC : Yes
Format settings, Reference frames : 14 frames
Codec ID : V_MPEG4/ISO/AVC
Duration : 1 h 34 min
Bit rate : 1 899 kb/s
Width : 1 024 pixels
Height : 512 pixels
Display aspect ratio : 2.000
Frame rate mode : Constant
Frame rate : 23.976 (24000/1001) FPS
Color space : YUV
Chroma subsampling : 4:2:0
Bit depth : 8 bits
Scan type : Progressive
Bits/(Pixel*Frame) : 0.151
Stream size : 1.25 GiB (61%)
Title : .[wolf1245.MediaBit]
Writing library : x264 core 157 r2958 57baac4
Encoding settings : cabac=1 / ref=14 / deblock=1:-3:-3 / analyse=0x3:0x133 / me=umh / subme=11 / psy=1 / psy_rd=1.00:0.10 / mixed_ref=1 / me_range=48 / chroma_me=1 / trellis=2 / 8x8dct=1 / cqm=0 / deadzone=21,11 / fast_pskip=1 / chroma_qp_offset=-3 / threads=10 / lookahead_threads=2 / sliced_threads=0 / nr=0 / decimate=1 / interlaced=0 / bluray_compat=0 / constrained_intra=0 / bframes=12 / b_pyramid=2 / b_adapt=2 / b_bias=0 / direct=3 / weightb=1 / open_gop=0 / weightp=2 / keyint=240 / keyint_min=24 / scenecut=40 / intra_refresh=0 / rc_lookahead=60 / rc=2pass / mbtree=1 / bitrate=1899 / ratetol=1.0 / qcomp=0.60 / qpmin=0 / qpmax=69 / qpstep=4 / cplxblur=20.0 / qblur=0.5 / vbv_maxrate=50000 / vbv_bufsize=62500 / nal_hrd=none / filler=0 / ip_ratio=1.40 / aq=3:0.80
Language : English
Default : Yes
Forced : No
Color range : Limited
Color primaries : BT.709
Transfer characteristics : BT.709
Matrix coefficients : BT.709
Audio #1
ID : 2
Format : AC-3
Format/Info : Audio Coding 3
Commercial name : Dolby Digital
Codec ID : A_AC3
Duration : 1 h 34 min
Bit rate mode : Constant
Bit rate : 384 kb/s
Channel(s) : 6 channels
Channel layout : L R C LFE Ls Rs
Sampling rate : 48.0 kHz
Frame rate : 31.250 FPS (1536 SPF)
Bit depth : 16 bits
Compression mode : Lossy
Stream size : 259 MiB (12%)
Title : Дубляж | (iTunes)
Language : Russian
Service kind : Complete Main
Default : Yes
Forced : No
Audio #2
ID : 3
Format : AC-3
Format/Info : Audio Coding 3
Commercial name : Dolby Digital
Codec ID : A_AC3
Duration : 1 h 34 min
Bit rate mode : Constant
Bit rate : 384 kb/s
Channel(s) : 6 channels
Channel layout : L R C LFE Ls Rs
Sampling rate : 48.0 kHz
Frame rate : 31.250 FPS (1536 SPF)
Bit depth : 16 bits
Compression mode : Lossy
Stream size : 259 MiB (12%)
Title : Дубляж | (iTunes)
Language : Ukrainian
Service kind : Complete Main
Default : No
Forced : No
Audio #3
ID : 4
Format : AC-3
Format/Info : Audio Coding 3
Commercial name : Dolby Digital
Codec ID : A_AC3
Duration : 1 h 34 min
Bit rate mode : Constant
Bit rate : 448 kb/s
Channel(s) : 6 channels
Channel layout : L R C LFE Ls Rs
Sampling rate : 48.0 kHz
Frame rate : 31.250 FPS (1536 SPF)
Bit depth : 16 bits
Compression mode : Lossy
Stream size : 302 MiB (14%)
Title : Original
Language : English
Service kind : Complete Main
Default : No
Forced : No
Text #1
ID : 5
Format : UTF-8
Codec ID : S_TEXT/UTF8
Codec ID/Info : UTF-8 Plain Text
Duration : 1 h 27 min
Bit rate : 62 b/s
Count of elements : 869
Stream size : 40.0 KiB (0%)
Title : Full
Language : Russian
Default : Yes
Forced : Yes
Text #2
ID : 6
Format : UTF-8
Codec ID : S_TEXT/UTF8
Codec ID/Info : UTF-8 Plain Text
Duration : 54 min 19 s
Bit rate : 1 b/s
Count of elements : 30
Stream size : 706 Bytes (0%)
Title : Forced
Language : English
Default : No
Forced : No
Text #3
ID : 7
Format : UTF-8
Codec ID : S_TEXT/UTF8
Codec ID/Info : UTF-8 Plain Text
Duration : 1 h 25 min
Bit rate : 38 b/s
Count of elements : 868
Stream size : 23.7 KiB (0%)
Title : Full .srt
Language : English
Default : No
Forced : No
Text #4
ID : 8
Format : UTF-8
Codec ID : S_TEXT/UTF8
Codec ID/Info : UTF-8 Plain Text
Duration : 1 h 30 min
Bit rate : 43 b/s
Count of elements : 1126
Stream size : 28.8 KiB (0%)
Title : SDH .srt
Language : English
Default : No
Forced : No
Menu
00:00:00.000 : :Chapter 01
00:06:17.544 : :Chapter 02
00:11:53.087 : :Chapter 03
00:16:04.881 : :Chapter 04
00:23:06.051 : :Chapter 05
00:26:23.540 : :Chapter 06
00:33:11.531 : :Chapter 07
00:42:08.943 : :Chapter 08
00:44:56.235 : :Chapter 09
00:50:56.679 : :Chapter 10
00:55:27.491 : :Chapter 11
01:02:05.597 : :Chapter 12
01:08:37.279 : :Chapter 13
01:14:32.927 : :Chapter 14
01:18:49.642 : :Chapter 15
01:25:52.105 : :Chapter 16
Релиз от: amp;




Скачать Ангел мести через торрент https://i115.fastpic.ru/big/2021/0705/d0/352cf67cd5b9098b5f964ee41ac9ffd0.jpg Скачать, смотреть онлайн Ангел мести бесплантно в хорошем качестве Описание: После выхода на пенсию бывший комиссар полиции понял, что прикрывать продажных детективов было ошибкой. Но чтобы подчистить за ... 8.5 10 6
Торрент: Зарегистрирован [2021-07-05 07:04] · скачан: 106 раз
Статус: √ проверено
Размер: 2.05 GB
Как cкачать? Как скачать Ангел мести через торрент | UTorrent

28-11-2019 20:33  


Отключить вcю реклaмy на сайте, в т.ч. и в плеере онлайн просмотра!

    Дорогой пользователь! Огромная просьба, поблагодарите релизера, оцените раздачу и оставьте свои комментарий, если Вы скачали Ангел мести через торрент бесплатно!!
    Комментировать посты могут только пользователи прошедшие не сложную регистрацию
    Показать сообщения:    


    Ангел мести через торрент
    Скачать бесплатно Ангел мести
    Ангел мести скачать торрент
    Ангел мести смотреть онлайн
    Cкачать фильм Ангел мести бесплатно
    Ангел мести скачать торрент в хорошем качестве
    Ангел мести смотреть онлайн бесплатно в хорошем качестве
    Вы не можете начинать темы
    Вы не можете отвечать на сообщения
    Вы не можете редактировать свои сообщения
    Вы не можете удалять свои сообщения
    Вы не можете голосовать в опросах
    Вы не можете прикреплять файлы к сообщениям
    Вы можете скачивать файлы
    Ангел мести / Vanquish [2021, Боевик, триллер, криминал, HDRip-AVC] Дубляж [iTunes] от MediaBit смотреть онлайн, скачать торрент picoco.icu