Присоединяйтесь к нам в Telegram!, здесь всегда актуальный адрес сайта, оперативная поддержка и многое другое!!

>

5.9

iTunes

7.4

iTunes

9.4

1 сезон

1

7.4

2 сезон

7.2

iTunes

7.3

1 сезон

13

6.1

iTunes

8.3

Пиратка

30

ULTIMATE

pack

9.9

Лицензия

ВАЖНО

ИГРА 18+

pack

7.3

RePack

MK11

7.7

RePack

jed

7.8

RePack

fifa19

8.5

RePack

RDR2

RePack

NEED FOR SPEED™ PAYBACK

5 сезон

9 сезон

Бесстыжие 9 сезон

Все сериалы

все сериалы на PB.wtf

RePack

FAR CRY 5

Anonymous, доброй ночи, мы катастрофически не успеваем собрать деньги на оплату серверов, помогите нам пожалуйста 5,10,15р., для нас важна любая помощь . В качестве благодарности мы отключим Вам всю рекламу на сайте (укажите свой ник в строку Ваше имя)!

×
  
Magnet ссылка

Война будущего / The Tomorrow War (Крис МакКей) [2021, Фантастика, боевик, WEB-DLRip-AVC] MVO [Jaskier] pb.wtf

Война будущего через торрент pb.wtf

Раздают: 7 [ 0 KB/s ]
Размер: 3.15 GB | Добавлен: 4 мес. 28 д. назад | Торрент скачан:540 раз
Смотреть онлайн Война будущего | Скачать    Ребята, помогите собрать деньги на оплату серверов!!!

08-07-2021 13:51 Война будущего Скачать торрент  

Война будущего | The Tomorrow War
Год выпуска: 2021
Страна: США
Студия: Lit Entertainment Group, New Republic Pictures, Phantom Four Films, Skydance Productions
Жанр: Фантастика, боевик
Продолжительность: 02:18:06
Перевод: Профессиональный (многоголосый) | Jaskier
Субтитры: Русские (форсированные, полные)

Режиссер: Крис МакКей

rating

В ролях: Крис Пратт, Ивонн Страховски, Дж.К. Симмонс, Бетти Гилпин, Сэм Ричардсон, Жасмин Мэтьюз, Эдвин Ходж, Райан Кира Армстронг, Кит Пауэрс, Мэри Линн Райскаб

Описание: В будущем инопланетяне все-таки нападут на Землю и практически не оставят людям шанса. Терпя поражение за поражением, человечество делает отчаянную попытку переломить ситуацию, а для этого призывает в свою армию солдат из прошлого. Благодаря ученым они перемещаются во времени, чтобы сразиться в новой войне.

Качество: WEB-DLRip-AVC
Формат: MKV

Видео: 1152x480 at 23.976 fps, x264@L4.1, ~2883 kbps, 0.217 bpp
Аудио: 48 kHz, AC3 Dolby Digital, 3/2 (L,C,R,l,r) + LFE ch, ~384 kbps ||RUS|
скриншот  скриншот  скриншот  скриншот  скриншот  

x264 [info]: frame I:1605 Avg QP:15.01 size: 67456
x264 [info]: frame P:46612 Avg QP:16.54 size: 28836
x264 [info]: frame B:150453 Avg QP:18.83 size: 10196

General
Format : Matroska
Format version : Version 4
File size : 3.15 GiB
Duration : 2 h 18 min
Overall bit rate : 3 269 kb/s
Movie name : Война будущего.(2021).AMZN.WEB-DLRip-AVC.[-=DoMiNo=-]
Encoded date : UTC 2021-07-08 08:18:54
Writing application : mkvmerge v58.0.0 ('Supper's Ready') 64-bit
Writing library : libebml v1.4.2 + libmatroska v1.6.4
Cover : Yes
Attachments : Cover.jpg / Cover 2.jpg

Video
ID : 1
Format : AVC
Format/Info : Advanced Video Codec
Format profile : High@L4.1
Format settings : CABAC / 12 Ref Frames
Format settings, CABAC : Yes
Format settings, Reference : 12 frames
Codec ID : V_MPEG4/ISO/AVC
Duration : 2 h 18 min
Bit rate : 2 883 kb/s
Width : 1 152 pixels
Height : 480 pixels
Display aspect ratio : 2.40:1
Frame rate mode : Constant
Frame rate : 23.976 (24000/1001) FPS
Color space : YUV
Chroma subsampling : 4:2:0
Bit depth : 8 bits
Scan type : Progressive
Bits/(Pixel*Frame) : 0.217
Stream size : 2.78 GiB (88%)
Title : -=DoMiNo=-
Writing library : x264 core 164 r3065+55M 280faca t_mod_New [(8 & 10)-bit@all X86_64]
Encoding settings : cabac=1 / ref=12 / deblock=1:-2:-2 / analyse=0x3:0x133 / me=umh / subme=10 / psy=1 / fade_compensate=0.00 / psy_rd=1.00:0.15 / mixed_ref=1 / me_range=32 / chroma_me=1 / trellis=2 / 8x8dct=1 / cqm=0 / deadzone=21,11 / fast_pskip=0 / chroma_qp_offset=-3 / threads=15 / lookahead_threads=3 / sliced_threads=0 / nr=0 / decimate=1 / interlaced=0 / bluray_compat=0 / constrained_intra=0 / fgo=0 / bframes=12 / b_pyramid=2 / b_adapt=2 / b_bias=0 / direct=1 / weightb=1 / open_gop=0 / weightp=2 / keyint=240 / keyint_min=23 / scenecut=40 / intra_refresh=0 / rc_lookahead=60 / rc=crf / mbtree=0 / crf=18.0000 / qcomp=0.70 / qpmin=0:0:0 / qpmax=69:69:69 / qpstep=4 / vbv_maxrate=50000 / vbv_bufsize=62500 / crf_max=0.0 / nal_hrd=none / filler=0 / ip_ratio=1.40 / pb_ratio=1.30 / aq=3:0.80 / aq-sensitivity=10.00 / aq-factor=1.00:1.00:1.00 / aq2=0 / aq3=0
Language : English
Default : Yes
Forced : No
Color range : Limited
Color primaries : BT.709
Transfer characteristics : BT.709
Matrix coefficients : BT.709

Audio
ID : 2
Format : AC-3
Format/Info : Audio Coding 3
Commercial name : Dolby Digital
Codec ID : A_AC3
Duration : 2 h 18 min
Bit rate mode : Constant
Bit rate : 384 kb/s
Channel(s) : 6 channels
Channel layout : L R C LFE Ls Rs
Sampling rate : 48.0 kHz
Frame rate : 31.250 FPS (1536 SPF)
Compression mode : Lossy
Stream size : 379 MiB (12%)
Title : MVO_[Jaskier]
Language : Russian
Service kind : Complete Main
Default : Yes
Forced : Yes

Text #1
ID : 3
Format : UTF-8
Codec ID : S_TEXT/UTF8
Codec ID/Info : UTF-8 Plain Text
Duration : 2 h 9 min
Bit rate : 1 b/s
Count of elements : 18
Stream size : 1.03 KiB (0%)
Language : Russian
Default : Yes
Forced : Yes

Text #2
ID : 4
Format : UTF-8
Codec ID : S_TEXT/UTF8
Codec ID/Info : UTF-8 Plain Text
Duration : 2 h 16 min
Bit rate : 77 b/s
Count of elements : 1483
Stream size : 77.5 KiB (0%)
Language : Russian
Default : No
Forced : No

pb.wtf



Скачать Война будущего через торрент https://i115.fastpic.ru/big/2021/0702/d6/5bbdc33d6e0f5e9140a0ce8ef91268d6.jpg Скачать, смотреть онлайн Война будущего бесплантно в хорошем качестве Описание: В будущем инопланетяне все-таки нападут на Землю и практически не оставят людям шанса. Терпя поражение за поражением, ... 10 10 18
Info! Золотая раздача, скачанное не засчитывается.
Торрент: Зарегистрирован [2021-07-08 13:51] · скачан: 540 раз
Статус: √ проверено
Размер: 3.15 GB
Как cкачать? Как скачать Война будущего через торрент | UTorrent

% Раздел Тема Автор DL S | L
Фильмы 2021 [DVDrip, WEB-DLRip, HDrip] (DUB, MVO) [ 1.46 GB ] Война будущего / The Tomorrow War [2021 WEB-DLRip] MVO [NewComers] Twi7ter Скачать
106 | 0
Фильмы (WEB-DL 720p, 1080p) [ 8.71 GB ] Война будущего / The Tomorrow War [2021 WEB-DL 1080p] [MVO] killermax2013 Скачать
13 | 0
Ultra HD (UHD: 2K, 4K, 8K) — видео сверхвысокой чёткости [ 15.2 GB ] Война будущего / The Tomorrow War [2021 WEB-DL-HEVC 2160p] MVO [Jaskier] bober100 Скачать
9 | 0
Фильмы 2021 [DVDrip, WEB-DLRip, HDrip] (DUB, MVO) [ 2.18 GB ] Война будущего / The Tomorrow War [2021 WEB-DLRip] MVO [Jaskier] bober100 Скачать
1 | 0
Фильмы 2021 [DVDrip, WEB-DLRip, HDrip] (DUB, MVO) [ 2.18 GB ] Война будущего / The Tomorrow War [2021 WEB-DLRip] MVO [NewComers] Twi7ter Скачать
32 | 0
Фильмы (WEB-DL 720p, 1080p) [ 2.51 GB ] Война будущего / The Tomorrow War [2021 WEBRip 1080p] [MVO] killermax2013 Скачать
5 | 0
Фильмы (WEB-DL 720p, 1080p) [ 8.71 GB ] Война будущего / The Tomorrow War [2021 WEB-DL 1080p] MVO [Jaskier] bober100 Скачать
6 | 0

28-11-2019 20:33  

Отключить всю рекламу на сайте

20-07-2021 14:28 Война будущего Скачать торрент  

Адский шлак, а не фильм....pb.wtf



17-10-2021 15:41 Война будущего Скачать торрент  

фильм супер, посмотрела два раза.pb.wtf



    Дорогой пользователь! Огромная просьба, поблагодарите релизера, оцените раздачу и оставьте свои комментарий, если Вы скачали Война будущего через торрент бесплатно!
    Комментировать посты могут только пользователи прошедшие не сложную регистрацию
    Показать сообщения:    

    Война будущего через торрент
    Скачать бесплатно Война будущего
    Война будущего скачать торрент
    Война будущего смотреть онлайн
    Cкачать фильм Война будущего бесплатно
    Война будущего скачать торрент в хорошем качестве
    Война будущего смотреть онлайн бесплатно в хорошем качестве


    Вы не можете начинать темы
    Вы не можете отвечать на сообщения
    Вы не можете редактировать свои сообщения
    Вы не можете удалять свои сообщения
    Вы не можете голосовать в опросах
    Вы не можете прикреплять файлы к сообщениям
    Вы можете скачивать файлы