Anonymous, доброй ночи, присоединяйтесь к нам в Telegram!, здесь всегда актуальный адрес сайта, оперативная поддержка и многое другое!

>

5.6

iTunes

7.4

MVO

5.7

MVO

1

7.7

1 сезон

6.8

iTunes

7.3

1 сезон

13

6.7

1 сезон

8.3

RePack

30

ULTIMATE

pack

9.9

Лицензия

ВАЖНО

ИГРА 18+

pack

7.3

RePack

MK11

7.7

RePack

jed

7.8

RePack

fifa19

8.5

RePack

RDR2

RePack

NEED FOR SPEED™ PAYBACK

4 сезон

9 сезон

Бесстыжие 9 сезон

Все сериалы

все сериалы на PB.wtf

RePack

FAR CRY 5

Anonymous, доброй ночи, мы катастрофически не успеваем собрать деньги на оплату серверов, помогите нам пожалуйста 5,10,15р., для нас важна любая помощь . В качестве благодарности мы отключим Вам всю рекламу на сайте (укажите свой ник в строку Ваше имя)!

×
  
Magnet ссылка

Естественный отбор / Сезон: 1 / Серии: 1-8 из 8 (Кирилл Алехин) [2021, Комедия, WEBRip 1080p] pb.wtf

Естественный отбор через торрент pb.wtf

Раздают: 3 [ 0 KB/s ]
Размер: 2.24 GB | Добавлен: 3 мес. 3 д. назад | Торрент скачан:152 раза
Смотреть онлайн Естественный отбор | Скачать    Ребята, помогите собрать деньги на оплату серверов!!!

08-07-2021 14:52 Естественный отбор Скачать торрент  

Естественный отбор
Год выпуска: 2021
Страна: Россия
Выпущено: Life Is Short, FakePublish
Жанр: Комедия
Продолжительность: ~ 00:12:00
Субтитры: отсутствуют

Режиссер: Кирилл Алехин



В ролях: Мария Корытова, Илья Смирнов, Родион Толоконников, Антон Лабан, Глеб Пускепалис, Владимир Гуськов (II), Игорь Бычков, Ольга Машная, Дарья Гирник, Денис Мелешко, Владимир Дубинин (II), Михаил Гурай, Дмитрий Александров, Антон Капанин, Юрий Цокуров, Мария Голицына, Денис Белосорочка, Николай Глебов, Анна Гришина, Сергей Апрельский

Описание: Алисе скоро тридцать, и она боится пересечь рубеж в одиночестве. Поэтому Алиса знакомится в приложениях и в интернете, в барах и на улицах. Ходит на свидания. Но каждый раз что-то идёт не так. «Естественный отбор» — история растерянного поколения. Слишком большой выбор. Завышенные ожидания. Неспособность идти на компромисс. Страх, что кто-то увидит не парадного тебя из социальных сетей, а настоящего. Как девушке найти не мифического «достойного», а просто нормального мужика? Каждое свидание — это не просто встреча с потенциальным бойфрендом. Это встреча с собой: Алиса ищет кого-то, кто ее поймет и полюбит, но вместо этого начинает лучше понимать себя.

Качество: WEBRip 1080p
Формат: MKV

Видео: MPEG-4 AVC, ~ 4500 Кбит/с, 1920x1072
Аудио: 48.0 kHz, AC3 Dolby Digital, 2/0 (L,R) ch, ~ 192 kbps
скриншот  скриншот  скриншот  скриншот  

Общее
Уникальный идентификатор : 293405412179030538350011993372966303932 (0xDCBBD3B0C5D00C1367E23EED8C48B8BC)
Полное имя : D:Estestvennyj.otbor.2020.WEB-DL.1080p1.Estestvennyj.otbor.2020.WEB-DL.1080p.mkv
Формат : Matroska
Версия формата : Version 4
Размер файла : 363 Мбайт
Продолжительность : 11 м. 27 с.
Режим общего битрейта : Переменный
Общий поток : 4 438 Кбит/сек
Название фильма : 01.Estestvennyj.otbor.2020.WEB-DL.1080p
Дата кодирования : UTC 2021-07-05 09:51:29
Программа кодирования : mkvmerge v58.0.0 ('Supper's Ready') 64-bit
Библиотека кодирования : libebml v1.4.2 + libmatroska v1.6.4
Attachments : poster.jpg

Видео
Идентификатор : 1
Формат : AVC
Формат/Информация : Advanced Video Codec
Профиль формата : High@L4
Настройки формата : CABAC / 1 Ref Frames
Параметр CABAC формата : Да
Параметр RefFrames формата : 1 кадр
Параметр GOP формата : M=1, N=50
Идентификатор кодека : V_MPEG4/ISO/AVC
Продолжительность : 11 м. 27 с.
Вид битрейта : Переменный
Битрейт : 4 243 Кбит/сек
Максимальный битрейт : 4 500 Кбит/сек
Ширина : 1 920 пикселей
Высота : 1 072 пикселя
Соотношение сторон : 16:9
Режим частоты кадров : Постоянный
Частота кадров : 25,000 кадров/сек
Цветовое пространство : YUV
Субдискретизация насыщенности : 4:2:0
Битовая глубина : 8 бит
Тип развёртки : Прогрессивная
Бит/(Пиксели*Кадры) : 0.082
Размер потока : 347 Мбайт (96%)
Default : Да
Forced : Нет

Аудио
Идентификатор : 2
Формат : AC-3
Формат/Информация : Audio Coding 3
Коммерческое название : Dolby Digital
Идентификатор кодека : A_AC3
Продолжительность : 11 м. 27 с.
Вид битрейта : Постоянный
Битрейт : 192 Кбит/сек
Каналы : 2 канала
Channel layout : L R
Частота : 48,0 КГц
Частота кадров : 31,250 кадров/сек (1536 SPF)
Метод сжатия : С потерями
Размер потока : 15,7 Мбайт (4%)
Service kind : Complete Main
Default : Да
Forced : Нет

Внимание! Раздача ведётся путём добавления новых серий; при каждом добавлении создаётся новый торрент. Чтобы начать докачку новой серии, пользователям необходимо сделать следующее:
(1) остановить скачивание,
(2) удалить старый торрент у себя из клиента (старые серии удалять не надо),
(3) скачать новый торрент и запустить его у себя в клиенте вместо старого, при этом указать клиенту путь в старую папку куда и должно происходить скачивание новых серий.

Ваш клиент при этом должен произвести хеширование (проверку) старой папки (если не производит сам - помогите ему сделать это), и будет докачивать только те серии которых у вас ещё нет. Старые серии при этом не удаляются, а продолжают раздаваться!

Eсли вы уже удалили старые серии, то предотвратить повторную закачку старых серий можно, отжав галочку в соответствующих местах при запуске нового торрента. По возможности, желательно не удалять старые серии как можно дольше чтобы релизёр не столько продолжал раздавать старые серии, а смог сконцентрироваться на новых.
pb.wtf



Скачать Естественный отбор через торрент https://a.radikal.ru/a13/2107/ec/eec66ceedb5c.jpg Скачать, смотреть онлайн Естественный отбор бесплантно в хорошем качестве Описание: Алисе скоро тридцать, и она боится пересечь рубеж в одиночестве. Поэтому Алиса знакомится в приложениях и в интернете, в барах и ... 10 10 10
Торрент: Зарегистрирован [2021-07-12 03:43] · скачан: 152 раз
Статус: √ проверено
Размер: 2.24 GB
Как cкачать? Как скачать Естественный отбор через торрент | UTorrent

% Раздел Тема Автор DL S | L
TNT serials [ 974 MB ] Естественный отбор / Сезон: 1 / Серии: 1-8 из 8 [2021 WEBRip] GEKADOL Скачать
1 | 0
Наши сериалы [ 4.34 GB ] Естественный отбор / Сезон: 1 Серии: 8 из 8 [2010 DVDRip] -=Cherry=- Скачать
1 | 1

28-11-2019 20:33  

Отключить всю рекламу на сайте

    Дорогой пользователь! Огромная просьба, поблагодарите релизера, оцените раздачу и оставьте свои комментарий, если Вы скачали Естественный отбор через торрент бесплатно!
    Комментировать посты могут только пользователи прошедшие не сложную регистрацию
    Показать сообщения:    

    Естественный отбор через торрент
    Скачать бесплатно Естественный отбор
    Естественный отбор скачать торрент
    Естественный отбор смотреть онлайн
    Cкачать фильм Естественный отбор бесплатно
    Естественный отбор скачать торрент в хорошем качестве
    Естественный отбор смотреть онлайн бесплатно в хорошем качестве


    Вы не можете начинать темы
    Вы не можете отвечать на сообщения
    Вы не можете редактировать свои сообщения
    Вы не можете удалять свои сообщения
    Вы не можете голосовать в опросах
    Вы не можете прикреплять файлы к сообщениям
    Вы можете скачивать файлы