Достать ножи: Стеклянная луковица

MVO

Добыча

Дубляж

Уэнсдэй

1 сезон

Тор

Дубляж

13 клиническая

1 сезон

Жестокая ночь

MVO

Одни из нас

1 сезон

Deluxe

pack

Рекомендуем

30

Пиратка

ВАЖНО

ВАЖНО

Ghostwire

Пиратка

jed

RePack

nioh2

RePack

RDR2

RePack

NEED FOR SPEED™ PAYBACK

RePack

скачать торрент

Кинопоиск HD

Острые козырьки 6 сезон

6 сезон

FAR CRY 6

RePack

скачать торрент

Лицензия

скачать торрент

MVO

1

1 сезон

скачать торрент

1 сезон

скачать торрент

Лицензия

  

Водяной / The Water Man (Дэвид Ойелоуо) [2021, Фэнтези, семейный, приключения, WEB-DLRip-AVC] [Дубляж] (Netflix)

Водяной через торрент pb.wtf

Размер: 1.67 GB | Добавлен: 1 год 6 мес. назад | Торрент скачан:265 раз
Смотреть онлайн | Скачать | Поддержите нас   

09-07-2021 10:25 Водяной Скачать торрент  

Водяной / The Water Man Год выхода: 2021
Жанр: Фэнтези, семейный, приключения
Страна: США
Студия: Harpo Films, ShivHans Pictures, Yoruba Saxon Productions
Продолжительность: 01:31:26
Перевод: Дублированный | Netflix
Субтитры: Русские (Forced, full), украинские (Full), английские

Режиссер: Дэвид Ойелоуо

В ролях: Розарио Доусон, Мария Белло, Альфред Молина, Дэвид Ойелоуо, Амайя Миллер, Джессика Ойелоуо, Лонни Чевис, Тед Руни, Джон Генри Уайтакер

Описание:

Ганнер вел обычный образ жизни до определенного момента, когда узнал, что его заботливая и любимая мама неизлечимо больна. Каждый день Ганнер отправлялся на поиски лекарственных средств, которые должны были впоследствии помочь матери. Однако попытки заканчивались катастрофической неудачей. Ганнер практически отчаялся, но внезапно познакомился с новой ученицей Джо. Таинственная незнакомка рассказала, что ее бабушка перед смертью поведала уникальную историю о существовании загадочного, мифического Водяного. Мистическое создание обладало знаниями бессмертия, но никому из представителей человеческой расы не говорило рецепта волшебного снадобья. Ганнер отправляется на поиски мифического Водяного, который, по слухам, обладает магическими целительными способностями.
rating

Качество: WEB-DLRip-AVC
Формат: Matroska
Видео: 1024x426 at 24.000 fps, [email protected], ~1707 kbps, 0.163 bpp
Аудио 1: AC3, 6 ch, ~448 kbps - | Русский | -
Аудио 2: AC3, 6 ch, ~448 kbps - | Английский | -
Формат субтитров: softsub (SRT)

***Релиз от: -=DoMiNo=-
x264 [info]: frame I:942 Avg QP:16.18 size: 59588

x264 [info]: frame P:30952 Avg QP:17.68 size: 18202

x264 [info]: frame B:99775 Avg QP:19.27 size: 5520

General

Format : Matroska

Format version : Version 4

File size : 1.67 GiB

Duration : 1 h 33 min

Overall bit rate : 2 567 kb/s

Movie name : Водяной.(2021).WEB-DLRip-AVC.[-=DoMiNo=-]

Encoded date : UTC 2021-07-09 09:49:08

Writing application : mkvmerge v58.0.0 ('Supper's Ready') 64-bit

Writing library : libebml v1.4.2 + libmatroska v1.6.4

Cover : Yes

Attachments : Cover.jpg / Cover 2.jpg

Video

ID : 1

Format : AVC

Format/Info : Advanced Video Codec

Format profile : [email protected]

Format settings : CABAC / 12 Ref Frames

Format settings, CABAC : Yes

Format settings, Reference : 12 frames

Codec ID : V_MPEG4/ISO/AVC

Duration : 1 h 31 min

Bit rate : 1 707 kb/s

Width : 1 024 pixels

Height : 426 pixels

Display aspect ratio : 2.40:1

Frame rate mode : Constant

Frame rate : 24.000 FPS

Color space : YUV

Chroma subsampling : 4:2:0

Bit depth : 8 bits

Scan type : Progressive

Bits/(Pixel*Frame) : 0.163

Stream size : 1.09 GiB (65%)

Title : -=DoMiNo=-

Writing library : x264 core 164 r3065+55M 280faca t_mod_New [(8 & 10)[email protected] X86_64]

Encoding settings : cabac=1 / ref=12 / deblock=1:-2:-2 / analyse=0x3:0x133 / me=umh / subme=10 / psy=1 / fade_compensate=0.00 / psy_rd=1.00:0.00 / mixed_ref=1 / me_range=32 / chroma_me=1 / trellis=2 / 8x8dct=1 / cqm=0 / deadzone=21,11 / fast_pskip=0 / chroma_qp_offset=-2 / threads=13 / lookahead_threads=3 / sliced_threads=0 / nr=0 / decimate=1 / interlaced=0 / bluray_compat=0 / constrained_intra=0 / fgo=0 / bframes=11 / b_pyramid=2 / b_adapt=2 / b_bias=0 / direct=1 / weightb=1 / open_gop=0 / weightp=2 / keyint=250 / keyint_min=24 / scenecut=40 / intra_refresh=0 / rc_lookahead=60 / rc=crf / mbtree=0 / crf=19.0000 / qcomp=0.65 / qpmin=0:0:0 / qpmax=69:69:69 / qpstep=4 / vbv_maxrate=50000 / vbv_bufsize=62500 / crf_max=0.0 / nal_hrd=none / filler=0 / ip_ratio=1.30 / pb_ratio=1.20 / aq=3:1.00 / aq-sensitivity=10.00 / aq-factor=1.00:1.00:1.00 / aq2=0 / aq3=0

Language : English

Default : Yes

Forced : No

Color range : Limited

Color primaries : BT.709

Transfer characteristics : BT.709

Matrix coefficients : BT.709

Audio #1

ID : 2

Format : AC-3

Format/Info : Audio Coding 3

Commercial name : Dolby Digital

Codec ID : A_AC3

Duration : 1 h 33 min

Bit rate mode : Constant

Bit rate : 448 kb/s

Channel(s) : 6 channels

Channel layout : L R C LFE Ls Rs

Sampling rate : 48.0 kHz

Frame rate : 31.250 FPS (1536 SPF)

Compression mode : Lossy

Stream size : 298 MiB (17%)

Title : DUB_[NF]

Language : Russian

Service kind : Complete Main

Default : Yes

Forced : Yes

Audio #2

ID : 3

Format : AC-3

Format/Info : Audio Coding 3

Commercial name : Dolby Digital

Codec ID : A_AC3

Duration : 1 h 31 min

Bit rate mode : Constant

Bit rate : 448 kb/s

Channel(s) : 6 channels

Channel layout : L R C LFE Ls Rs

Sampling rate : 48.0 kHz

Frame rate : 31.250 FPS (1536 SPF)

Compression mode : Lossy

Stream size : 293 MiB (17%)

Language : English

Service kind : Complete Main

Default : No

Forced : No

Text #1

ID : 4

Format : UTF-8

Codec ID : S_TEXT/UTF8

Codec ID/Info : UTF-8 Plain Text

Duration : 1 h 30 min

Bit rate : 3 b/s

Count of elements : 55

Stream size : 2.38 KiB (0%)

Title : Forced

Language : Russian

Default : Yes

Forced : Yes

Text #2

ID : 5

Format : UTF-8

Codec ID : S_TEXT/UTF8

Codec ID/Info : UTF-8 Plain Text

Duration : 1 h 30 min

Bit rate : 47 b/s

Count of elements : 853

Stream size : 31.4 KiB (0%)

Title : Full

Language : Russian

Default : No

Forced : No

Text #3

ID : 6

Format : UTF-8

Codec ID : S_TEXT/UTF8

Codec ID/Info : UTF-8 Plain Text

Duration : 1 h 30 min

Bit rate : 49 b/s

Count of elements : 858

Stream size : 32.7 KiB (0%)

Title : Full

Language : Ukrainian

Default : No

Forced : No

Text #4

ID : 7

Format : UTF-8

Codec ID : S_TEXT/UTF8

Codec ID/Info : UTF-8 Plain Text

Duration : 1 h 31 min

Bit rate : 47 b/s

Count of elements : 1391

Stream size : 32.0 KiB (0%)

Title : SDH

Language : English

Default : No

Forced : No
скриншот  скриншот  скриншот  



Скачать Водяной через торрент https://b.radikal.ru/b28/2107/65/b3385444b25b.jpg Скачать, смотреть онлайн Водяной бесплантно в хорошем качестве Описание: Ганнер вел обычный образ жизни до определенного момента, когда узнал, что его заботливая и любимая мама неизлечимо больна. Каждый ... 9.7 10 6
Торрент: Зарегистрирован [2021-07-09 10:25] · скачан: 265 раз
Статус: √ проверено
Размер: 1.67 GB
Как cкачать? Как скачать Водяной через торрент | UTorrent

% Раздел Тема Автор DL S | L
Фильмы 2021 [DVDrip, WEB-DLRip, HDrip] (DUB, MVO) [ 1.46 GB ] Водный человек / Водяной / The Water Man | DUB | BDRip bober100 Скачать
1 | 0
Фильмы [HD 720p, 1080p] (Хороший звук DUB, MVO) [ 3.05 GB ] Водный человек / Водяной / The Water Man | DUB | 720p bober100 Скачать
1 | 0
Фильмы [HD 720p, 1080p] (Хороший звук DUB, MVO) [ 6.56 GB ] Водный человек / Водяной / The Water Man | DUB | 1080p bober100 Скачать
2 | 0
Фильмы 2021 [DVDrip, WEB-DLRip, HDrip] (DUB, MVO) [ 746 MB ] Водный человек / Водяной / The Water Man | DUB | BDRip bober100 Скачать
1 | 0
Фильмы 2021 [DVDrip, WEB-DLRip, HDrip] (DUB, MVO) [ 1.46 GB ] Водяной / The Water Man | Дубляж - | BDRip Twi7ter Скачать
3 | 0

28-11-2019 20:33  


Отключить вcю реклaмy на сайте, в т.ч. и в плеере онлайн просмотра!

    Дорогой пользователь! Огромная просьба, поблагодарите релизера, оцените раздачу и оставьте свои комментарий, если Вы скачали Водяной через торрент бесплатно!!
    Комментировать посты могут только пользователи прошедшие не сложную регистрацию
    Показать сообщения:    


    Водяной через торрент
    Скачать бесплатно Водяной
    Водяной скачать торрент
    Водяной смотреть онлайн
    Cкачать фильм Водяной бесплатно
    Водяной скачать торрент в хорошем качестве
    Водяной смотреть онлайн бесплатно в хорошем качестве
    Вы не можете начинать темы
    Вы не можете отвечать на сообщения
    Вы не можете редактировать свои сообщения
    Вы не можете удалять свои сообщения
    Вы не можете голосовать в опросах
    Вы не можете прикреплять файлы к сообщениям
    Вы можете скачивать файлы
    Водяной / The Water Man [2021, Фэнтези, семейный, приключения, WEB-DLRip-AVC] [Дубляж] смотреть онлайн, скачать торрент picoco.icu