>

5.6

iTunes

6.1

MVO

5.7

MVO

1

7.4

1 сезон

6.8

iTunes

7.2

1 сезон

13

6.7

1 сезон

8.3

RePack

30

Deluxe

pack

9.9

Лицензия

ВАЖНО

ИГРА 18+

pack

7.3

RePack

MK11

7.7

RePack

jed

7.8

RePack

fifa19

8.5

RePack

RDR2

RePack

NEED FOR SPEED™ PAYBACK

4 сезон

9 сезон

Бесстыжие 9 сезон

Все сериалы

все сериалы на PB.wtf

RePack

FAR CRY 5

Anonymous, доброе утро, мы катастрофически не успеваем собрать деньги на оплату серверов, помогите нам пожалуйста 5,10,15р., для нас важна любая помощь . В качестве благодарности мы отключим Вам всю рекламу на сайте (укажите свой ник в строку Ваше имя)!

×
  
Magnet ссылка

Обитель зла: Бесконечная тьма / Resident Evil: Infinite Darkness / Сезон: 1 / Серии: 1-4 из 4 (Эиитиро Хасуми) [2021, Аниме, мультфильм, ужасы, боевик, фантастика, WEB-DL 1080p] MVO [AlexFilm] pb.wtf

Обитель зла: Бесконечная тьма через торрент pb.wtf

Раздают: 5 [ 0.5 KB/s ]
Размер: 4.59 GB | Добавлен: 2 мес. 10 д. назад | Торрент скачан:218 раз
Смотреть онлайн Обитель зла: Бесконечная тьма | Скачать    Ребята, помогите собрать деньги на оплату серверов!!!

10-07-2021 17:13 Обитель зла: Бесконечная тьма Скачать торрент  

Обитель зла: Бесконечная тьма
Resident Evil: Infinite Darkness

Год выпуска: 2021
Страна: США, Япония
Выпущено: Capcom Company, Netflix, okyo Movie Shinsha Co. Ltd.
Жанр: Аниме, мультфильм, ужасы, боевик, фантастика
Продолжительность: ~ 00:26:00
Перевод: Профессиональный (многоголосый) | AlexFilm
Субтитры: Русские (Forced, Full |«Netflix»|, английские (Forced, SDH)

Режиссер: Эиитиро Хасуми

rating

В ролях: Ник Апостолидес, Стефани Паниселло, Джона Сяо, Рэй Чейз, Билли Каметц, Даг Стоун, Джо Томас, Брэд Венейбл и др.

Описание: 2006 год. Леон Кеннеди прибывает в Белый дом расследовать хакерскую атаку и на месте застаёт очередной прорыв зомби. Вместе с Клэр Рэтфилд он пытается разгадать чей-то зловещий план и вычислить злоумышленников.

Качество: WEB-DL 1080p
Формат: MKV

Видео: 1920x1080 (16:9), 24 fps, ~5000 Kbps
Аудио №1: AC3, 48,0 kHz, 6 ch, 384 kbps | AlexFilm
Аудио №2: AC3, 48,0 kHz, 6 ch, 640 kbps | Original
скриншот  скриншот  скриншот  скриншот  

Complete name : D:Resident_Evil_Infinite_Darkness_(s01)_AlexFilm_1080pResident.Evil.Infinite.Darkness.2021.S01E01.Episode.1.1080p.WEB-DL.DD5.1.x264-NTb_EniaHD.mkv
Format : Matroska
Format version : Version 4
File size : 957 MiB
Duration : 26 min 6 s
Overall bit rate mode : Variable
Overall bit rate : 5 125 kb/s
Encoded date : UTC 2021-07-10 13:58:49
Writing application : mkvmerge v58.0.0 ('Supper's Ready') 64-bit
Writing library : libebml v1.4.2 + libmatroska v1.6.4

Video
ID : 1
Format : AVC
Format/Info : Advanced Video Codec
Format profile : High@L4
Format settings : CABAC / 4 Ref Frames
Format settings, CABAC : Yes
Format settings, Reference : 4 frames
Codec ID : V_MPEG4/ISO/AVC
Duration : 26 min 5 s
Bit rate mode : Variable
Bit rate : 4 102 kb/s
Maximum bit rate : 20.0 Mb/s
Width : 1 920 pixels
Height : 1 080 pixels
Display aspect ratio : 16:9
Frame rate mode : Constant
Frame rate : 24.000 FPS
Color space : YUV
Chroma subsampling : 4:2:0
Bit depth : 8 bits
Scan type : Progressive
Bits/(Pixel*Frame) : 0.082
Stream size : 765 MiB (80%)
Title : Release by EniaHD
Writing library : x264 core 148 r2722 1b0121b
Encoding settings : cabac=1 / ref=4 / deblock=1:0:0 / analyse=0x3:0x111 / me=umh / subme=10 / psy=1 / psy_rd=1.00:0.00 / mixed_ref=1 / me_range=120 / chroma_me=1 / trellis=2 / 8x8dct=1 / cqm=0 / deadzone=21,11 / fast_pskip=1 / chroma_qp_offset=-2 / threads=8 / lookahead_threads=2 / sliced_threads=0 / nr=0 / decimate=1 / interlaced=0 / bluray_compat=0 / stitchable=1 / constrained_intra=0 / bframes=16 / b_pyramid=2 / b_adapt=2 / b_bias=0 / direct=3 / weightb=1 / open_gop=0 / weightp=2 / keyint=240 / keyint_min=121 / scenecut=0 / intra_refresh=0 / rc_lookahead=240 / rc=crf / mbtree=1 / crf=17.0 / qcomp=0.50 / qpmin=6 / qpmax=51 / qpstep=4 / vbv_maxrate=20000 / vbv_bufsize=25000 / crf_max=0.0 / nal_hrd=vbr / filler=0 / ip_ratio=1.40 / aq=1:0.80
Default : Yes
Forced : No

Audio #1
ID : 2
Format : AC-3
Format/Info : Audio Coding 3
Commercial name : Dolby Digital
Codec ID : A_AC3
Duration : 26 min 6 s
Bit rate mode : Constant
Bit rate : 384 kb/s
Channel(s) : 6 channels
Channel layout : L R C LFE Ls Rs
Sampling rate : 48.0 kHz
Frame rate : 31.250 FPS (1536 SPF)
Compression mode : Lossy
Stream size : 71.7 MiB (7%)
Title : AlexFilm
Language : Russian
Service kind : Complete Main
Default : Yes
Forced : No

Audio #2
ID : 3
Format : AC-3
Format/Info : Audio Coding 3
Commercial name : Dolby Digital
Codec ID : A_AC3
Duration : 26 min 6 s
Bit rate mode : Constant
Bit rate : 640 kb/s
Channel(s) : 6 channels
Channel layout : L R C LFE Ls Rs
Sampling rate : 48.0 kHz
Frame rate : 31.250 FPS (1536 SPF)
Compression mode : Lossy
Stream size : 120 MiB (12%)
Language : English
Service kind : Complete Main
Default : No
Forced : No

Text #1
ID : 4
Format : UTF-8
Codec ID : S_TEXT/UTF8
Codec ID/Info : UTF-8 Plain Text
Duration : 23 min 20 s
Bit rate : 1 b/s
Count of elements : 3
Stream size : 228 Bytes (0%)
Title : Forced
Language : Russian
Default : Yes
Forced : No

Text #2
ID : 5
Format : UTF-8
Codec ID : S_TEXT/UTF8
Codec ID/Info : UTF-8 Plain Text
Duration : 23 min 20 s
Bit rate : 90 b/s
Count of elements : 278
Stream size : 15.5 KiB (0%)
Title : Full |NF|
Language : Russian
Default : No
Forced : No

Text #3
ID : 6
Format : UTF-8
Codec ID : S_TEXT/UTF8
Codec ID/Info : UTF-8 Plain Text
Duration : 23 min 10 s
Bit rate : 73 b/s
Count of elements : 394
Stream size : 12.4 KiB (0%)
Title : SDH
Language : English
Default : No
Forced : No

Внимание! Раздача ведётся путём добавления новых серий; при каждом добавлении создаётся новый торрент.
Чтобы начать докачку новой серии, пользователям необходимо сделать следующее:
1. Остановить скачивание;
2. Удалить старый торрент у себя из клиента (старые серии удалять не надо);
3. Скачать новый торрент и запустить его у себя в клиенте вместо старого, при этом указать клиенту путь в старую папку куда и должно происходить скачивание новых серий. Ваш клиент при этом должен произвести хеширование (проверку) старой папки и будет докачивать только те серии, которых у вас ещё нет. Старые серии при этом не удаляются, а продолжают раздаваться! Eсли вы уже удалили старые серии, то предотвратить повторную закачку старых серий можно, отжав галочку в соответствующих местах при запуске нового торрента.

pb.wtf



Скачать Обитель зла: Бесконечная тьма через торрент https://d.radikal.ru/d25/2107/67/a979c33b483f.png Скачать, смотреть онлайн Обитель зла: Бесконечная тьма бесплантно в хорошем качестве Описание: 2006 год. Леон Кеннеди прибывает в Белый дом расследовать хакерскую атаку и на месте застаёт очередной прорыв зомби. Вместе с ... 9.9 10 11
Info! Золотая раздача, скачанное не засчитывается.
Торрент: Зарегистрирован [2021-07-13 07:58] · скачан: 218 раз
Статус: √ проверено
Размер: 4.59 GB
Как cкачать? Как скачать Обитель зла: Бесконечная тьма через торрент | UTorrent

% Раздел Тема Автор DL S | L
Аниме [HD 720p, 1080p] [ 2.78 GB ] Обитель зла: Бесконечная тьма / Resident Evil: Infinite Darkness / Сезон: 1 / Серии: 1-4 из 4 [2021 WEBRip 720p] [MVO] + [Ukr MVO] killermax2013 Скачать
4 | 0
Фильмы без перевода [ 2.11 GB ] Обитель зла: Бесконечная тьма / Resident Evil: Infinite Darkness / Сезон: 1 / Серии: 1-4 из 4 [2021 WEBRip 720p] [Sub] killermax2013 Скачать
2 | 0

28-11-2019 20:33  

Отключить всю рекламу на сайте

    Дорогой пользователь! Огромная просьба, поблагодарите релизера, оцените раздачу и оставьте свои комментарий, если Вы скачали Обитель зла: Бесконечная тьма через торрент бесплатно!
    Комментировать посты могут только пользователи прошедшие не сложную регистрацию
    Показать сообщения:    

    Обитель зла: Бесконечная тьма через торрент
    Скачать бесплатно Обитель зла: Бесконечная тьма
    Обитель зла: Бесконечная тьма скачать торрент
    Обитель зла: Бесконечная тьма смотреть онлайн
    Cкачать фильм Обитель зла: Бесконечная тьма бесплатно
    Обитель зла: Бесконечная тьма скачать торрент в хорошем качестве
    Обитель зла: Бесконечная тьма смотреть онлайн бесплатно в хорошем качестве


    Вы не можете начинать темы
    Вы не можете отвечать на сообщения
    Вы не можете редактировать свои сообщения
    Вы не можете удалять свои сообщения
    Вы не можете голосовать в опросах
    Вы не можете прикреплять файлы к сообщениям
    Вы можете скачивать файлы