Доктор Стрэндж

Лицензия

Добыча

Дубляж

Дом дракона

1 сезон

Тор

Дубляж

В эфире

Дубляж

Там, где раки поют

MVO

Властелин колец

1 сезон

Ultimate

pack

Рекомендуем

30

Пиратка

ВАЖНО

ВАЖНО

Ghostwire

Пиратка

jed

RePack

nioh2

RePack

RDR2

RePack

NEED FOR SPEED™ PAYBACK

RePack

скачать торрент

Кинопоиск HD

Острые козырьки 6 сезон

6 сезон

FAR CRY 6

RePack

скачать торрент

Лицензия

скачать торрент

MVO

1

1 сезон

скачать торрент

1 сезон

скачать торрент

Лицензия

  

Мои каникулы (Ираклий Асатиани) [1973 г., комедия, детский, семейный, короткометражный, SATRip-AVC]

Мои каникулы через торрент pb.wtf

Раздают: 1 [ 0 KB/s ]
Размер: 451 MB | Добавлен: 1 год 4 мес. назад | Торрент скачан:6 раз
Смотреть онлайн | Скачать   

11-07-2021 11:59 Мои каникулы Скачать торрент  

Мои каникулы

Год выпуска: 1973
Страна: СССР | Грузия-фильм
Жанр: комедия, детский, семейный, короткометражный
Продолжительность: 00:22:56
Перевод: не требуется

Режиссер: Ираклий Асатиани

В ролях: Михаил Кинцурашвили, Шалва Херхеулидзе, Леомер Гугушвили, Иванэ Сакварелидзе, Лео Сохашвили

Описание: Грузинская короткометражка без единого слова, о приключениях подростка, который приехал из города на летние каникулы в деревню.



Файл
Формат: MKV
Кодек: x264
Качество: SATRip-AVC (DVB)
Видео: MPEG-4 AVC, [email protected], 25.000 fps, 2553 kbps, 0.247 bit/pixel
Аудио: AC3, 2 chnls, 192 kbps
x264 [info]: frame I:204 Avg QP:17.98 size: 47228
x264 [info]: frame P:7818 Avg QP:19.02 size: 25953
x264 [info]: frame B:26402 Avg QP:20.39 size: 8591
x264 [info]: consecutive B-frames: 1.6% 2.9% 8.7% 28.6% 23.1% 28.5% 4.0% 1.3% 0.6% 0.5% 0.2% 0.1%
Format : Matroska
Format version : Version 4
File size : 451 MiB
Duration : 22 min 56 s
Overall bit rate : 2 748 kb/s
Movie name : Мои каникулы (1973) - Rip by -{am}-
Encoded date : UTC 2021-07-10 22:14:45
Writing application : mkvmerge v7.2.0 ('On Every Street') 32bit built on Sep 13 2014 15:42:11
Writing library : libebml v1.3.0 + libmatroska v1.4.1
Attachments : poster.png

Video
ID : 1
Format : AVC
Format/Info : Advanced Video Codec
Format profile : [email protected]
Format settings : CABAC / 16 Ref Frames
Format settings, CABAC : Yes
Format settings, Reference : 16 frames
Codec ID : V_MPEG4/ISO/AVC
Duration : 22 min 56 s
Bit rate : 2 553 kb/s
Width : 720 pixels
Height : 574 pixels
Display aspect ratio : 4:3
Frame rate mode : Constant
Frame rate : 25.000 FPS
Color space : YUV
Chroma subsampling : 4:2:0
Bit depth : 8 bits
Scan type : Progressive
Bits/(Pixel*Frame) : 0.247
Stream size : 419 MiB (93%)
Title : Moi.kanikuly.1973.{am}.768.SATRip.AVC
Writing library : x264 core 164 r3065+55M 280faca t_mod_New [(8 & 10)[email protected] X86_64]
Encoding settings : cabac=1 / ref=16 / deblock=1:-2:-3 / analyse=0x3:0x133 / me=umh / subme=11 / psy=1 / fade_compensate=0.00 / psy_rd=1.07:0.10 / mixed_ref=1 / me_range=48 / chroma_me=1 / trellis=2 / 8x8dct=1 / cqm=2 / deadzone=6,6 / fast_pskip=0 / chroma_qp_offset=-3 / threads=18 / lookahead_threads=4 / sliced_threads=0 / nr=0 / decimate=0 / interlaced=0 / bluray_compat=0 / constrained_intra=0 / fgo=0 / bframes=11 / b_pyramid=2 / b_adapt=2 / b_bias=0 / direct=3 / weightb=1 / open_gop=0 / weightp=2 / keyint=250 / keyint_min=25 / scenecut=40 / intra_refresh=0 / rc_lookahead=40 / rc=crf / mbtree=0 / crf=17.8000 / qcomp=0.60 / qpmin=0:0:0 / qpmax=30:30:30 / qpstep=4 / vbv_maxrate=62500 / vbv_bufsize=78125 / crf_max=0.0 / nal_hrd=none / filler=0 / ip_ratio=1.25 / pb_ratio=1.30 / aq=3:1.00 / aq-sensitivity=10.00 / aq-factor=1.00:1.00:1.00 / aq2=0 / aq3=0
Language : Russian
Default : Yes
Forced : No
Color range : Limited
Color primaries : BT.601 PAL
Transfer characteristics : BT.470 System B/G
Matrix coefficients : BT.470 System B/G

Audio
ID : 2
Format : AC-3
Format/Info : Audio Coding 3
Commercial name : Dolby Digital
Codec ID : A_AC3
Duration : 22 min 56 s
Bit rate mode : Constant
Bit rate : 192 kb/s
Channel(s) : 2 channels
Channel layout : L R
Sampling rate : 48.0 kHz
Frame rate : 31.250 FPS (1536 SPF)
Compression mode : Lossy
Stream size : 31.5 MiB (7%)
Title : Original
Service kind : Complete Main
Default : Yes
Forced : No
скриншот  скриншот  скриншот  скриншот  

скриншот  скриншот  скриншот  скриншот  

скриншот  скриншот  скриншот  скриншот  



Скачать Мои каникулы через торрент https://c.radikal.ru/c01/2107/8d/f7390a45ad85.jpg Скачать, смотреть онлайн Мои каникулы бесплантно в хорошем качестве Описание: Грузинская короткометражка без единого слова, о приключениях подростка, который приехал из города на летние каникулы в деревню. ... 10 10 2
Торрент: Зарегистрирован [2021-07-11 11:59] · скачан: 6 раз
Статус: √ проверено
Размер: 451 MB
Как cкачать? Как скачать Мои каникулы через торрент | UTorrent

28-11-2019 20:33  


Отключить вcю реклaмy на сайте, в т.ч. и в плеере онлайн просмотра!

    Дорогой пользователь! Огромная просьба, поблагодарите релизера, оцените раздачу и оставьте свои комментарий, если Вы скачали Мои каникулы через торрент бесплатно!!
    Комментировать посты могут только пользователи прошедшие не сложную регистрацию
    Показать сообщения:    


    Мои каникулы через торрент
    Скачать бесплатно Мои каникулы
    Мои каникулы скачать торрент
    Мои каникулы смотреть онлайн
    Cкачать фильм Мои каникулы бесплатно
    Мои каникулы скачать торрент в хорошем качестве
    Мои каникулы смотреть онлайн бесплатно в хорошем качестве
    Вы не можете начинать темы
    Вы не можете отвечать на сообщения
    Вы не можете редактировать свои сообщения
    Вы не можете удалять свои сообщения
    Вы не можете голосовать в опросах
    Вы не можете прикреплять файлы к сообщениям
    Вы можете скачивать файлы
    Мои каникулы [1973 г., комедия, детский, семейный, короткометражный, SATRip-AVC] смотреть онлайн, скачать торрент picoco.icu