Всегда рабочее зеркало без VPN и Proxy просто перед .vidak.icu напиши любое слово или цифру, Пример http://qnfr.vidak.icu

Лицензия

MVO

1 сезон

1

1 сезон

iTunes

1 сезон

13

1 сезон

Deluxe

pack

Рекомендуем

Repack

30

ВАЖНО

RePack

MK11

RePack

jed

RePack

fifa19

RePack

RDR2

RePack

NEED FOR SPEED™ PAYBACK

Кинопоиск HD

6 сезон

 Острые козырьки 6 сезон

Все сериалы

все сериалы на PB.wtf

RePack

FAR CRY 5
  
Magnet ссылка

Wig Wam - Collections (6CD) 2005 - 2021/ FLAC/APE/ image +.cue/ lossless/ Hard Rock/ Glam Rock pb.wtf

Wig Wam - Collections через торрент pb.wtf

Размер: 2.23 GB | Добавлен: 1 год 1 мес. назад | Торрент скачан:1 раз
Смотреть онлайн Wig Wam - Collections | Скачать    Ребята, помогите собрать деньги на оплату серверов!!!

12-07-2021 10:33 Wig Wam - Collections Скачать торрент  


Wig Wam - Collections (6CD) 2005 - 2021


Год издания: 2005 - 2021
Страна: Norway
Жанр: Hard Rock, Glam Rock
Продолжительность: 04:52:46
Страна-выпуска диска: EU | Japan | Italy
Формат: FLAC,APE
Битрейт аудио: Lossless
Тип рипа: image +.cue
Наличие сканов в содержимом раздачи: да


Лейбл издания: Napalm Records
Страна-выпуска диска: EU
Номер по каталогу: NPR 174



01. In my Dreams (3:02)
02. Hard to be a Rock n Roller (3:45)
03. Bless the night (3:49)
04. I Turn to you (4:09)
05. Out of Time (4:04)
06. Mine all Mine (3:43)
07. The Drop (4:00)
08. Tell me where to go (4:12)
09. No more Living on lies (3:56)
10. Erection (2:11)
11. Car-Lyle (3:56)
12. The Best song in the world (3:13)
13. A long way to go (4:24)
14. Crazy Things (3:09)
15. Dschinghis Khan (3:33)

Лейбл издания: Voices & Wonder
Страна-выпуска диска: EU
Номер по каталогу: VOW110



01. Wig Wamania (0:59)
02. Rock My Ride (4:13)
03. Slave To Your Love (3:52)
04. Gonna Get You Someday (3:10)
05. Bygone Zone (4:57)
06. Dare Devil Heat (4:07)
07. Kill My Rock 'N' Roll (3:25)
08. The Riddle (3:16)
09. At The End Of The Day (4:48)
10. A R 'N' R Girl Like You (3:10)
11. Can't Get Her (Out Of My Bed) (2:54)
12. Breaking All The Rules (4:14)

Лейбл издания: King Records
Страна-выпуска диска: Japan
Номер по каталогу: KICP1169



01. Wig Wamania (1:00)
02. Rock My Ride (4:13)
03. Slave To Your Love (3:52)
04. Gonna Get You Someday (3:10)
05. Bygone Zone (4:57)
06. Dare Devil Heat (4:07)
07. Kill My Rock 'N' Roll (3:25)
08. The Riddle (3:16)
09. At The End Of The Day (4:48)
10. A R 'N' R Girl Like You (3:10)
11. Can't Get Her (Out Of My Bed) (2:54)
12. Breaking All The Rules (4:15)
13. After The Nine O'Clock News (3:35)
14. Flying High (3:23)
15. In My Dreams (Live Version) (5:36)

Лейбл издания: Frontiers Records
Страна-выпуска диска: Italy
Номер по каталогу: FR CD 443



01. Do Ya Wanna Taste It (2:57)
02. Walls Come Down (3:58)
03. Wild One (3:23)
04. C'mon Everybody (4:15)
05. Man In the Moon (4:00)
06. Still I'm Burning (3:34)
07. All You Wanted (3:15)
08. Non Stop Rock And Roll (3:51)
09. From Here (3:16)
10. Rocket Through My Heart (3:28)
11. Chasing Rainbows (4:57)
12. Gotta Get It On (Bonus Track) (3:19)

Лейбл издания: Frontier Records
Страна-выпуска диска: Italy
Номер по каталогу: FR CD 553



01. Wall Street (3:18)
02. Omg! (4:00)
03. Victory Is Sweet (5:21)
04. The Bigger The Better (2:32)
05. Bleeding Daylight (3:16)
06. Tides Will Turn (4:28)
07. Wrong Can Feel So Right (3:43)
08. One Million Enemies (3:43)
09. Try My Body On (3:29)
10. Natural High (3:46)
11. Things Money Can't Buy (3:00)
12. School's Out (3:15)

Лейбл издания: AVALON
Страна-выпуска диска: Japan
Номер по каталогу: MICP-11580



01. The Second Crusade (0:55)
02. Never Say Die (4:05)
03. Hypnotized (3:57)
04. Shadows Of Eternity (3:34)
05. Kilimanjaro (3:56)
06. Where Does It Hurt (4:17)
07. My Kaleidoscope Ark (4:35)
08. Dirty Little Secret (3:52)
09. Call Of The Wild (4:43)
10. Northbound (3:54)
11. Hard Love (3:34)
12. Silver Lining (6:17)
13. Dare Devil Heat 2020 (3:49)

Код:

Exact Audio Copy V0.99 prebeta 4 from 23. January 2008

EAC extraction logfile from 8. May 2009, 18:18

Wig Wam / Hard to be a Rock n Roller

Used drive  : HL-DT-STDVDRAM GSA-H10N   Adapter: 2  ID: 0

Read mode               : Secure
Utilize accurate stream : Yes
Defeat audio cache      : Yes
Make use of C2 pointers : No

Read offset correction                      : 667
Overread into Lead-In and Lead-Out          : No
Fill up missing offset samples with silence : Yes
Delete leading and trailing silent blocks   : No
Null samples used in CRC calculations       : Yes
Used interface                              : Installed external ASPI interface

Used output format : Internal WAV Routines
Sample format      : 44.100 Hz; 16 Bit; Stereo

TOC of the extracted CD

     Track |   Start  |  Length  | Start sector | End sector
    ---------------------------------------------------------
        1  |  0:00.00 |  3:01.47 |         0    |    13621
        2  |  3:01.47 |  3:44.19 |     13622    |    30440
        3  |  6:45.66 |  3:48.17 |     30441    |    47557
        4  | 10:34.08 |  4:08.50 |     47558    |    66207
        5  | 14:42.58 |  4:03.58 |     66208    |    84490
        6  | 18:46.41 |  3:42.16 |     84491    |   101156
        7  | 22:28.57 |  3:59.67 |    101157    |   119148
        8  | 26:28.49 |  4:11.65 |    119149    |   138038
        9  | 30:40.39 |  3:55.31 |    138039    |   155694
       10  | 34:35.70 |  2:10.22 |    155695    |   165466
       11  | 36:46.17 |  3:55.41 |    165467    |   183132
       12  | 40:41.58 |  3:12.51 |    183133    |   197583
       13  | 43:54.34 |  4:23.62 |    197584    |   217370
       14  | 48:18.21 |  3:08.33 |    217371    |   231503
       15  | 51:26.54 |  3:32.21 |    231504    |   247424
       16  | 57:31.00 | 17:59.40 |    258825    |   339789

Range status and errors

Selected range

     Filename E:\Hard to be a Rock n Roller.wav

     Peak level 99.8 %
     Range quality 100.0 %
     Copy CRC BE2A50C6
     Copy OK

No errors occurred

End of status report

Код:

EAC extraction logfile from 7. May 2009, 18:45 for CD
Wig Wam / Wig Wamania

Used drive  : PLEXTOR DVDR   PX-716A   Adapter: 1  ID: 0
Read mode   : Secure with NO C2, accurate stream, disable cache
Read offset correction : 30
Overread into Lead-In and Lead-Out : No

Used output format : Internal WAV Routines
                     44.100 Hz; 16 Bit; Stereo

Other options      :
    Fill up missing offset samples with silence : Yes
    Delete leading and trailing silent blocks : No
    Native Win32 interface for Win NT & 2000

Range status and errors
Selected range
     Filename D:\Wig Wamania.wav

     Peak level 99.8 %
     Range quality 99.9 %
     CRC 9EDBE1B6
     Copy OK

No errors occured

End of status report

Код:

Exact Audio Copy V1.0 beta 3 from 29. August 2011

Отчёт EAC об извлечении, выполненном 11. декабря 2012, 14:33

Wig Wam / Wig Wamania

Дисковод: PIONEER DVD-RW DVRTD11RS   Adapter: 0  ID: 1

Режим чтения                 : Достоверность
Использование точного потока : Да
Отключение кэша аудио        : Да
Использование указателей C2  : Нет

Коррекция смещения при чтении                     : 6
Способность читать области Lead-in и Lead-out     : Нет
Заполнение пропущенных сэмплов тишиной            : Да
Удаление блоков с тишиной в начале и конце        : Нет
При вычислениях CRC использовались нулевые сэмплы : Да
Интерфейс                                         : Установленный внешний ASPI-интерфейс

Выходной формат          : Пользовательский кодировщик
Выбранный битрейт        : 128 kBit/s
Качество                 : Высокий
Добавление ID3-тега      : Нет
Утилита сжатия           : C:\Program Files (x86)\Exact Audio Copy\FLAC\FLAC.EXE
Дополнительные параметры : -V -8 -T "Date=%year%" -T "Genre=%genre%" %source%

TOC извлечённого CD

     Трек |   Старт  | Длительность | Начальный сектор | Конечный сектор
    ---------------------------------------------------------------------
       1  |  0:00.00 |    0:59.20   |           0      |       4444
       2  |  0:59.20 |    4:12.60   |        4445      |      23404
       3  |  5:12.05 |    3:51.37   |       23405      |      40766
       4  |  9:03.42 |    3:09.63   |       40767      |      55004
       5  | 12:13.30 |    4:56.02   |       55005      |      77206
       6  | 17:09.32 |    4:06.25   |       77207      |      95681
       7  | 21:15.57 |    3:24.23   |       95682      |     111004
       8  | 24:40.05 |    3:15.50   |      111005      |     125679
       9  | 27:55.55 |    4:47.15   |      125680      |     147219
      10  | 32:42.70 |    3:09.50   |      147220      |     161444
      11  | 35:52.45 |    2:53.70   |      161445      |     174489
      12  | 38:46.40 |    4:14.35   |      174490      |     193574
      13  | 43:01.00 |    3:34.47   |      193575      |     209671
      14  | 46:35.47 |    3:22.30   |      209672      |     224851
      15  | 49:58.02 |    5:35.65   |      224852      |     250041

Характеристики диапазона извлечения и сообщения об ошибках

Выбранный диапазон

     Имя файла C:\Users\user\Desktop\Новая папка\Wig Wam - Wig Wamania.wav

     Пиковый уровень 98.7 %
     Скорость извлечения 5.1 X
     Качество диапазона 100.0 %
     CRC теста B51BC513
     CRC копии B51BC513
     Копирование... OK

Ошибок не произошло

AccurateRip: сводка

Трек  1  : извлечено точно (доверие 2)  [77377980]  (AR v1)
Трек  2  : извлечено точно (доверие 2)  [DA9E28C6]  (AR v1)
Трек  3  : извлечено точно (доверие 2)  [6B8AEEEB]  (AR v1)
Трек  4  : извлечено точно (доверие 2)  [0988AC8E]  (AR v1)
Трек  5  : извлечено точно (доверие 2)  [571CD678]  (AR v1)
Трек  6  : извлечено точно (доверие 2)  [4183D494]  (AR v1)
Трек  7  : извлечено точно (доверие 2)  [0E227141]  (AR v1)
Трек  8  : извлечено точно (доверие 2)  [24E4BF44]  (AR v1)
Трек  9  : извлечено точно (доверие 2)  [8269A987]  (AR v1)
Трек 10  : извлечено точно (доверие 2)  [DCD43CD3]  (AR v1)
Трек 11  : извлечено точно (доверие 2)  [2FCF528D]  (AR v1)
Трек 12  : извлечено точно (доверие 2)  [BA44E2DD]  (AR v1)
Трек 13  : извлечено точно (доверие 2)  [BD384FA2]  (AR v1)
Трек 14  : извлечено точно (доверие 2)  [0648FA36]  (AR v1)
Трек 15  : извлечено точно (доверие 2)  [4CC09C11]  (AR v1)

Все треки извлечены точно

Конец отчёта

Код:

Exact Audio Copy V0.99 prebeta 5 from 4. May 2009

EAC extraction logfile from 3. February 2010, 19:14

Wig Wam / Non Stop Rock'N'Roll

Used drive  : HL-DT-STDVDRAM GH40N   Adapter: 1  ID: 0

Read mode               : Secure
Utilize accurate stream : Yes
Defeat audio cache      : Yes
Make use of C2 pointers : No

Read offset correction                      : 667
Overread into Lead-In and Lead-Out          : No
Fill up missing offset samples with silence : Yes
Delete leading and trailing silent blocks   : No
Null samples used in CRC calculations       : Yes
Used interface                              : Installed external ASPI interface

Used output format : Internal WAV Routines
Sample format      : 44.100 Hz; 16 Bit; Stereo

TOC of the extracted CD

     Track |   Start  |  Length  | Start sector | End sector
    ---------------------------------------------------------
        1  |  0:00.00 |  2:56.73 |         0    |    13272
        2  |  2:56.73 |  3:57.02 |     13273    |    31049
        3  |  6:54.00 |  3:22.48 |     31050    |    46247
        4  | 10:16.48 |  4:14.67 |     46248    |    65364
        5  | 14:31.40 |  3:59.44 |     65365    |    83333
        6  | 18:31.09 |  3:33.36 |     83334    |    99344
        7  | 22:04.45 |  3:14.15 |     99345    |   113909
        8  | 25:18.60 |  3:50.22 |    113910    |   131181
        9  | 29:09.07 |  3:15.35 |    131182    |   145841
       10  | 32:24.42 |  3:27.52 |    145842    |   161418
       11  | 35:52.19 |  4:56.41 |    161419    |   183659
       12  | 40:48.60 |  3:18.33 |    183660    |   198542

Range status and errors

Selected range

     Filename E:\Wig Wam - Non Stop Rock'n'roll (2010)\Non Stop Rock'N'Roll.wav

     Peak level 100.0 %
     Range quality 100.0 %
     Copy CRC 97277CFE
     Copy OK

No errors occurred

End of status report

Код:

Exact Audio Copy V0.99 prebeta 4 from 23. January 2008

Отчёт EAC об извлечении, выполненном 18. июня 2012, 15:27

Wig Wam / Wall Street

Дисковод: Optiarc DVD RW AD-7173A   Adapter: 0  ID: 1

Режим чтения                 : Достоверность
Использование точного потока : Да
Отключение кэша аудио        : Да
Использование указателей C2  : Нет

Коррекция смещения при чтении                     : 48
Способность читать области Lead-in и Lead-out     : Нет
Заполнение пропущенных сэмплов тишиной            : Да
Удаление блоков с тишиной в начале и конце        : Нет
При вычислениях CRC использовались нулевые сэмплы : Да
Интерфейс                                         : Встроенный Win32-интерфейс для Win NT/2000

Выходной формат : Внутренние WAV-операции
Формат сэмплов  : 44.100 Гц; 16 бит; стерео

TOC извлечённого CD

     Трек |   Старт  | Длительность | Начальный сектор | Конечный сектор
    ---------------------------------------------------------------------
       1  |  0:00.00 |    3:17.61   |           0      |      14835
       2  |  3:17.61 |    3:59.51   |       14836      |      32811
       3  |  7:17.37 |    5:20.53   |       32812      |      56864
       4  | 12:38.15 |    2:31.73   |       56865      |      68262
       5  | 15:10.13 |    3:15.33   |       68263      |      82920
       6  | 18:25.46 |    4:27.08   |       82921      |     102953
       7  | 22:52.54 |    3:42.19   |      102954      |     119622
       8  | 26:34.73 |    3:42.40   |      119623      |     136312
       9  | 30:17.38 |    3:28.06   |      136313      |     151918
      10  | 33:45.44 |    3:45.63   |      151919      |     168856
      11  | 37:31.32 |    2:59.56   |      168857      |     182337
      12  | 40:31.13 |    3:14.73   |      182338      |     196960

Характеристики диапазона извлечения и сообщения об ошибках

Выбранный диапазон

     Имя файла D:\КОЛЛЕКЦИЯ 0\Новая папка (2)\Wig Wam - Wall Street.wav

     Пиковый уровень 100.0 %
     Качество диапазона 100.0 %
     CRC теста 001B1842
     CRC копии 001B1842
     Копирование... OK

Ошибок не произошло

AccurateRip: сводка

Трек  1  нет в базе данных
Трек  2  нет в базе данных
Трек  3  нет в базе данных
Трек  4  нет в базе данных
Трек  5  нет в базе данных
Трек  6  нет в базе данных
Трек  7  нет в базе данных
Трек  8  нет в базе данных
Трек  9  нет в базе данных
Трек 10  нет в базе данных
Трек 11  нет в базе данных
Трек 12  нет в базе данных

Ни одного трека нет в базе AccurateRip

Конец отчёта

Код:

X Lossless Decoder version 20210101 (153.1)

XLD extraction logfile from 2021-02-06 15:48:23 +1000

Wig Wam / Never Say Die [Bonus Track]

Used drive : Optiarc DVD RW AD-7700S (revision 1.D5)
Media type : Pressed CD

Ripper mode             : XLD Secure Ripper
Disable audio cache     : OK for the drive with a cache less than 1375KiB
Make use of C2 pointers : NO
Read offset correction  : 48
Max retry count         : 20
Gap status              : Analyzed, Appended

TOC of the extracted CD
     Track |   Start  |  Length  | Start sector | End sector
    ---------------------------------------------------------
        1  | 00:00:00 | 00:54:11 |         0    |     4060
        2  | 00:54:11 | 04:04:15 |      4061    |    22375
        3  | 04:58:26 | 03:56:33 |     22376    |    40108
        4  | 08:54:59 | 03:33:10 |     40109    |    56093
        5  | 12:27:69 | 03:55:54 |     56094    |    73772
        6  | 16:23:48 | 04:16:15 |     73773    |    92987
        7  | 20:39:63 | 04:34:14 |     92988    |   113551
        8  | 25:14:02 | 03:51:52 |    113552    |   130928
        9  | 29:05:54 | 04:42:23 |    130929    |   152101
       10  | 33:48:02 | 03:53:50 |    152102    |   169626
       11  | 37:41:52 | 03:33:14 |    169627    |   185615
       12  | 41:14:66 | 06:16:10 |    185616    |   213825
       13  | 47:31:01 | 03:48:66 |    213826    |   230991

AccurateRip Summary
    Disc not found in AccurateRip DB.

All Tracks
    Filename : /Volumes/Seagate Backup Plus Drive/Music/Wig Wam/2021 - Never Say Die/Never Say Die [Bonus Track].flac
    CRC32 hash (test run)    : 05741BD2
    CRC32 hash               : 05741BD2
    CRC32 hash (skip zero)   : 3E76DC0B
    Statistics
        Read error                           : 0
        Jitter error (maybe fixed)           : 0
        Retry sector count                   : 0
        Damaged sector count                 : 0

Track 01
    Pre-gap length : 00:02:00

    CRC32 hash (test run)    : 84B37413
    CRC32 hash               : 84B37413
    CRC32 hash (skip zero)   : 4E6E9CB4
    AccurateRip v1 signature : 47D03758
    AccurateRip v2 signature : ACDB7F53
        ->Track not present in AccurateRip database.
    Statistics
        Read error                           : 0
        Jitter error (maybe fixed)           : 0
        Retry sector count                   : 0
        Damaged sector count                 : 0

Track 02

    CRC32 hash (test run)    : DF8531F2
    CRC32 hash               : DF8531F2
    CRC32 hash (skip zero)   : E072B89A
    AccurateRip v1 signature : A73E3580
    AccurateRip v2 signature : 21954AD4
        ->Track not present in AccurateRip database.
    Statistics
        Read error                           : 0
        Jitter error (maybe fixed)           : 0
        Retry sector count                   : 0
        Damaged sector count                 : 0

Track 03
    Pre-gap length : 00:02:00

    CRC32 hash (test run)    : 22B40306
    CRC32 hash               : 22B40306
    CRC32 hash (skip zero)   : 6C9167DD
    AccurateRip v1 signature : D35529DE
    AccurateRip v2 signature : 393B3101
        ->Track not present in AccurateRip database.
    Statistics
        Read error                           : 0
        Jitter error (maybe fixed)           : 0
        Retry sector count                   : 0
        Damaged sector count                 : 0

Track 04
    Pre-gap length : 00:02:00

    CRC32 hash (test run)    : 926F07EF
    CRC32 hash               : 926F07EF
    CRC32 hash (skip zero)   : C8B7A01B
    AccurateRip v1 signature : 36EC3320
    AccurateRip v2 signature : 28FC07EF
        ->Track not present in AccurateRip database.
    Statistics
        Read error                           : 0
        Jitter error (maybe fixed)           : 0
        Retry sector count                   : 0
        Damaged sector count                 : 0

Track 05
    Pre-gap length : 00:00:13

    CRC32 hash (test run)    : 729E6FAD
    CRC32 hash               : 729E6FAD
    CRC32 hash (skip zero)   : A181ADBD
    AccurateRip v1 signature : 69936959
    AccurateRip v2 signature : 7814261E
        ->Track not present in AccurateRip database.
    Statistics
        Read error                           : 0
        Jitter error (maybe fixed)           : 0
        Retry sector count                   : 0
        Damaged sector count                 : 0

Track 06
    Pre-gap length : 00:02:00

    CRC32 hash (test run)    : 64FC4E4E
    CRC32 hash               : 64FC4E4E
    CRC32 hash (skip zero)   : 46408DD1
    AccurateRip v1 signature : B5A62C9A
    AccurateRip v2 signature : A50F429D
        ->Track not present in AccurateRip database.
    Statistics
        Read error                           : 0
        Jitter error (maybe fixed)           : 0
        Retry sector count                   : 0
        Damaged sector count                 : 0

Track 07
    Pre-gap length : 00:02:00

    CRC32 hash (test run)    : E4D62A28
    CRC32 hash               : E4D62A28
    CRC32 hash (skip zero)   : 47B3DD02
    AccurateRip v1 signature : FF284556
    AccurateRip v2 signature : 5E44C454
        ->Track not present in AccurateRip database.
    Statistics
        Read error                           : 0
        Jitter error (maybe fixed)           : 0
        Retry sector count                   : 0
        Damaged sector count                 : 0

Track 08
    Pre-gap length : 00:02:00

    CRC32 hash (test run)    : DA8FEC1A
    CRC32 hash               : DA8FEC1A
    CRC32 hash (skip zero)   : C86D16B4
    AccurateRip v1 signature : 77BBDFC1
    AccurateRip v2 signature : 4001DF81
        ->Track not present in AccurateRip database.
    Statistics
        Read error                           : 0
        Jitter error (maybe fixed)           : 0
        Retry sector count                   : 0
        Damaged sector count                 : 0

Track 09
    Pre-gap length : 00:03:14

    CRC32 hash (test run)    : 0F3C6B83
    CRC32 hash               : 0F3C6B83
    CRC32 hash (skip zero)   : 57E510B9
    AccurateRip v1 signature : B94BF666
    AccurateRip v2 signature : 5BA85A84
        ->Track not present in AccurateRip database.
    Statistics
        Read error                           : 0
        Jitter error (maybe fixed)           : 0
        Retry sector count                   : 0
        Damaged sector count                 : 0

Track 10
    Pre-gap length : 00:02:00

    CRC32 hash (test run)    : AC182761
    CRC32 hash               : AC182761
    CRC32 hash (skip zero)   : FF05B492
    AccurateRip v1 signature : 1065BB59
    AccurateRip v2 signature : 85272D7E
        ->Track not present in AccurateRip database.
    Statistics
        Read error                           : 0
        Jitter error (maybe fixed)           : 0
        Retry sector count                   : 0
        Damaged sector count                 : 0

Track 11
    Pre-gap length : 00:02:00

    CRC32 hash (test run)    : C51709DB
    CRC32 hash               : C51709DB
    CRC32 hash (skip zero)   : E5FF5E0C
    AccurateRip v1 signature : 008CDD3D
    AccurateRip v2 signature : 438F0F66
        ->Track not present in AccurateRip database.
    Statistics
        Read error                           : 0
        Jitter error (maybe fixed)           : 0
        Retry sector count                   : 0
        Damaged sector count                 : 0

Track 12
    Pre-gap length : 00:00:06

    CRC32 hash (test run)    : 1EE45CD2
    CRC32 hash               : 1EE45CD2
    CRC32 hash (skip zero)   : 4C04C6C5
    AccurateRip v1 signature : 7F14539D
    AccurateRip v2 signature : AEC1B998
        ->Track not present in AccurateRip database.
    Statistics
        Read error                           : 0
        Jitter error (maybe fixed)           : 0
        Retry sector count                   : 0
        Damaged sector count                 : 0

Track 13
    Pre-gap length : 00:00:13

    CRC32 hash (test run)    : 2BCC7F65
    CRC32 hash               : 2BCC7F65
    CRC32 hash (skip zero)   : 0E9551CF
    AccurateRip v1 signature : E311436C
    AccurateRip v2 signature : 2283F87E
        ->Track not present in AccurateRip database.
    Statistics
        Read error                           : 0
        Jitter error (maybe fixed)           : 0
        Retry sector count                   : 0
        Damaged sector count                 : 0

No errors occurred

End of status report

Код:

REM GENRE Rock
REM DATE 2005
REM DISCID D611B210
REM COMMENT "ExactAudioCopy v0.99pb4"
PERFORMER "Wig Wam"
TITLE "Hard to be a Rock n Roller"
FILE "Hard to be a Rock n Roller.wav" WAVE
  TRACK 01 AUDIO
    TITLE "In my Dreams"
    PERFORMER "Wig Wam"
    INDEX 01 00:00:00
  TRACK 02 AUDIO
    TITLE "Hard to be a Rock n Roller"
    PERFORMER "Wig Wam"
    INDEX 01 03:01:47
  TRACK 03 AUDIO
    TITLE "Bless the night"
    PERFORMER "Wig Wam"
    INDEX 01 06:45:66
  TRACK 04 AUDIO
    TITLE "I Turn to you"
    PERFORMER "Wig Wam"
    INDEX 01 10:34:08
  TRACK 05 AUDIO
    TITLE "Out of Time"
    PERFORMER "Wig Wam"
    INDEX 01 14:42:58
  TRACK 06 AUDIO
    TITLE "Mine all Mine"
    PERFORMER "Wig Wam"
    INDEX 01 18:46:41
  TRACK 07 AUDIO
    TITLE "The Drop"
    PERFORMER "Wig Wam"
    INDEX 01 22:28:57
  TRACK 08 AUDIO
    TITLE "Tell me where to go"
    PERFORMER "Wig Wam"
    INDEX 01 26:28:49
  TRACK 09 AUDIO
    TITLE "No more Living on lies"
    PERFORMER "Wig Wam"
    INDEX 01 30:40:39
  TRACK 10 AUDIO
    TITLE "Erection"
    PERFORMER "Wig Wam"
    INDEX 01 34:35:70
  TRACK 11 AUDIO
    TITLE "Car-Lyle"
    PERFORMER "Wig Wam"
    INDEX 01 36:46:17
  TRACK 12 AUDIO
    TITLE "The Best song in the world"
    PERFORMER "Wig Wam"
    INDEX 01 40:41:58
  TRACK 13 AUDIO
    TITLE "A long way to go"
    PERFORMER "Wig Wam"
    INDEX 01 43:54:34
  TRACK 14 AUDIO
    TITLE "Crazy Things"
    PERFORMER "Wig Wam"
    INDEX 01 48:18:21
  TRACK 15 AUDIO
    TITLE "Dschinghis Khan"
    PERFORMER "Wig Wam"
    INDEX 01 51:26:54

Код:

REM GENRE Rock
REM DATE 2006
REM DISCID 900A130C
REM COMMENT "ExactAudioCopy v0.95b2"
PERFORMER "Wig Wam"
TITLE "Wig Wamania"
FILE "Wig Wamania.wav" WAVE
  TRACK 01 AUDIO
    TITLE "Wig Wamania"
    PERFORMER "Wig Wam"
    ISRC NOFVV0610010
    INDEX 01 00:00:00
  TRACK 02 AUDIO
    TITLE "Rock My Ride"
    PERFORMER "Wig Wam"
    ISRC NOFVV0610020
    INDEX 01 00:58:36
  TRACK 03 AUDIO
    TITLE "Slave To Your Love"
    PERFORMER "Wig Wam"
    ISRC NOFVV0610030
    INDEX 00 05:11:11
    INDEX 01 05:11:32
  TRACK 04 AUDIO
    TITLE "Gonna Get You Someday"
    PERFORMER "Wig Wam"
    ISRC NOFVV0609010
    INDEX 00 09:01:26
    INDEX 01 09:02:69
  TRACK 05 AUDIO
    TITLE "Bygone Zone"
    PERFORMER "Wig Wam"
    ISRC NOFVV0610040
    INDEX 00 12:12:26
    INDEX 01 12:12:58
  TRACK 06 AUDIO
    TITLE "Dare Devil Heat"
    PERFORMER "Wig Wam"
    ISRC NOFVV0610050
    INDEX 01 17:08:60
  TRACK 07 AUDIO
    TITLE "Kill My Rock 'N' Roll"
    PERFORMER "Wig Wam"
    ISRC NOFVV0610060
    INDEX 01 21:15:13
  TRACK 08 AUDIO
    TITLE "The Riddle"
    PERFORMER "Wig Wam"
    ISRC NOFVV0610070
    INDEX 01 24:39:35
  TRACK 09 AUDIO
    TITLE "At The End Of The Day"
    PERFORMER "Wig Wam"
    ISRC NOFVV0610080
    INDEX 00 27:54:35
    INDEX 01 27:55:06
  TRACK 10 AUDIO
    TITLE "A R 'N' R Girl Like You"
    PERFORMER "Wig Wam"
    ISRC NOFVV0610090
    INDEX 01 32:42:18
  TRACK 11 AUDIO
    TITLE "Can't Get Her (Out Of My Bed)"
    PERFORMER "Wig Wam"
    ISRC NOFVV0610100
    INDEX 00 35:51:52
    INDEX 01 35:52:01
  TRACK 12 AUDIO
    TITLE "Breaking All The Rules"
    PERFORMER "Wig Wam"
    ISRC NOFVV0610110
    INDEX 01 38:45:74

Код:

REM GENRE Rock
REM DATE 2006
REM DISCID C50D050F
REM COMMENT "ExactAudioCopy v1.0b3"
PERFORMER "Wig Wam"
TITLE "Wig Wamania"
FILE "Wig Wam - Wig Wamania.flac" WAVE
  TRACK 01 AUDIO
    TITLE "Wig Wamania"
    PERFORMER "Wig Wam"
    INDEX 01 00:00:00
  TRACK 02 AUDIO
    TITLE "Rock My Ride"
    PERFORMER "Wig Wam"
    INDEX 01 00:59:20
  TRACK 03 AUDIO
    TITLE "Slave To Your Love"
    PERFORMER "Wig Wam"
    INDEX 01 05:12:05
  TRACK 04 AUDIO
    TITLE "Gonna Get You Someday"
    PERFORMER "Wig Wam"
    INDEX 00 09:02:07
    INDEX 01 09:03:42
  TRACK 05 AUDIO
    TITLE "Bygone Zone"
    PERFORMER "Wig Wam"
    INDEX 01 12:13:30
  TRACK 06 AUDIO
    TITLE "Dare Devil Heat"
    PERFORMER "Wig Wam"
    INDEX 01 17:09:32
  TRACK 07 AUDIO
    TITLE "Kill My Rock 'N' Roll"
    PERFORMER "Wig Wam"
    INDEX 01 21:15:57
  TRACK 08 AUDIO
    TITLE "The Riddle"
    PERFORMER "Wig Wam"
    INDEX 01 24:40:05
  TRACK 09 AUDIO
    TITLE "At The End Of The Day"
    PERFORMER "Wig Wam"
    INDEX 01 27:55:55
  TRACK 10 AUDIO
    TITLE "A R 'N' R Girl Like You"
    PERFORMER "Wig Wam"
    INDEX 01 32:42:70
  TRACK 11 AUDIO
    TITLE "Can't Get Her (Out Of My Bed)"
    PERFORMER "Wig Wam"
    INDEX 01 35:52:45
  TRACK 12 AUDIO
    TITLE "Breaking All The Rules"
    PERFORMER "Wig Wam"
    INDEX 01 38:46:40
  TRACK 13 AUDIO
    TITLE "After The Nine O'Clock News"
    PERFORMER "Wig Wam"
    INDEX 00 42:59:25
    INDEX 01 43:01:00
  TRACK 14 AUDIO
    TITLE "Flying High"
    PERFORMER "Wig Wam"
    INDEX 00 46:33:72
    INDEX 01 46:35:47
  TRACK 15 AUDIO
    TITLE "In My Dreams (Live Version)"
    PERFORMER "Wig Wam"
    INDEX 00 49:56:27
    INDEX 01 49:58:02

Код:

REM GENRE "Glam Rock"
REM DATE 2010
REM DISCID 910A570C
REM COMMENT "ExactAudioCopy v0.99pb5"
PERFORMER "Wig Wam"
TITLE "Non Stop Rock'N'Roll"
FILE "Non Stop Rock'N'Roll.wav" WAVE
  TRACK 01 AUDIO
    TITLE "Do Ya Wanna Taste It "
    PERFORMER "Wig Wam"
    FLAGS DCP
    INDEX 01 00:00:00
  TRACK 02 AUDIO
    TITLE "Walls Come Down "
    PERFORMER "Wig Wam"
    FLAGS DCP
    INDEX 01 02:56:73
  TRACK 03 AUDIO
    TITLE "Wild One "
    PERFORMER "Wig Wam"
    FLAGS DCP
    INDEX 01 06:54:00
  TRACK 04 AUDIO
    TITLE "C'mon Everybody "
    PERFORMER "Wig Wam"
    FLAGS DCP
    INDEX 01 10:16:48
  TRACK 05 AUDIO
    TITLE "Man In the Moon "
    PERFORMER "Wig Wam"
    FLAGS DCP
    INDEX 01 14:31:40
  TRACK 06 AUDIO
    TITLE "Still I'm Burning "
    PERFORMER "Wig Wam"
    FLAGS DCP
    INDEX 01 18:31:09
  TRACK 07 AUDIO
    TITLE "All You Wanted "
    PERFORMER "Wig Wam"
    FLAGS DCP
    INDEX 01 22:04:45
  TRACK 08 AUDIO
    TITLE "Non Stop Rock And Roll "
    PERFORMER "Wig Wam"
    FLAGS DCP
    INDEX 01 25:18:60
  TRACK 09 AUDIO
    TITLE "From Here "
    PERFORMER "Wig Wam"
    FLAGS DCP
    INDEX 01 29:09:07
  TRACK 10 AUDIO
    TITLE "Rocket Through My Heart "
    PERFORMER "Wig Wam"
    FLAGS DCP
    INDEX 01 32:24:42
  TRACK 11 AUDIO
    TITLE "Chasing Rainbows"
    PERFORMER "Wig Wam"
    FLAGS DCP
    INDEX 01 35:52:19
  TRACK 12 AUDIO
    TITLE "Gotta Get It On (Bonus Track) "
    PERFORMER "Wig Wam"
    FLAGS DCP
    INDEX 01 40:48:60

Код:

REM GENRE Rock
REM DATE 2012
REM DISCID A10A420C
REM COMMENT "ExactAudioCopy v0.99pb4"
PERFORMER "Wig Wam"
TITLE "Wall Street"
FILE "Wig Wam - Wall Street.ape" WAVE
  TRACK 01 AUDIO
    TITLE "Wall Street "
    PERFORMER "Wig Wam"
    FLAGS DCP
    INDEX 01 00:00:00
  TRACK 02 AUDIO
    TITLE "Omg! "
    PERFORMER "Wig Wam"
    FLAGS DCP
    INDEX 01 03:17:61
  TRACK 03 AUDIO
    TITLE "Victory Is Sweet "
    PERFORMER "Wig Wam"
    FLAGS DCP
    INDEX 01 07:17:37
  TRACK 04 AUDIO
    TITLE "The Bigger The Better "
    PERFORMER "Wig Wam"
    FLAGS DCP
    INDEX 01 12:38:15
  TRACK 05 AUDIO
    TITLE "Bleeding Daylight "
    PERFORMER "Wig Wam"
    FLAGS DCP
    INDEX 01 15:10:13
  TRACK 06 AUDIO
    TITLE "Tides Will Turn "
    PERFORMER "Wig Wam"
    FLAGS DCP
    INDEX 01 18:25:46
  TRACK 07 AUDIO
    TITLE "Wrong Can Feel So Right "
    PERFORMER "Wig Wam"
    FLAGS DCP
    INDEX 01 22:52:54
  TRACK 08 AUDIO
    TITLE "One Million Enemies "
    PERFORMER "Wig Wam"
    FLAGS DCP
    INDEX 01 26:34:73
  TRACK 09 AUDIO
    TITLE "Try My Body On "
    PERFORMER "Wig Wam"
    FLAGS DCP
    INDEX 01 30:17:38
  TRACK 10 AUDIO
    TITLE "Natural High "
    PERFORMER "Wig Wam"
    FLAGS DCP
    INDEX 01 33:45:44
  TRACK 11 AUDIO
    TITLE "Things Money Can't Buy "
    PERFORMER "Wig Wam"
    FLAGS DCP
    INDEX 01 37:31:32
  TRACK 12 AUDIO
    TITLE "School's Out "
    PERFORMER "Wig Wam"
    FLAGS DCP
    INDEX 01 40:31:13

Код:

TITLE "Never Say Die [Bonus Track]"
PERFORMER "Wig Wam"
REM GENRE "Rock"
REM DATE "2021"
REM DISCNUMBER 1
REM TOTALDISCS 1
REM DISCID A70C070D
FILE "Never Say Die [Bonus Track].flac" WAVE
  TRACK 01 AUDIO
    TITLE "The Second Crusade"
    ISRC ITG272100055
    INDEX 01 00:00:00
  TRACK 02 AUDIO
    TITLE "Never Say Die"
    ISRC ITG272100056
    INDEX 01 00:54:11
  TRACK 03 AUDIO
    TITLE "Hypnotized"
    ISRC ITG272100057
    INDEX 00 04:56:26
    INDEX 01 04:58:26
  TRACK 04 AUDIO
    TITLE "Shadows Of Eternity"
    ISRC ITG272100058
    INDEX 00 08:52:59
    INDEX 01 08:54:59
  TRACK 05 AUDIO
    TITLE "Kilimanjaro"
    ISRC ITG272100059
    INDEX 00 12:27:56
    INDEX 01 12:27:69
  TRACK 06 AUDIO
    TITLE "Where Does It Hurt"
    ISRC ITG272100060
    INDEX 00 16:21:48
    INDEX 01 16:23:48
  TRACK 07 AUDIO
    TITLE "My Kaleidoscope Ark"
    ISRC ITG272100061
    INDEX 00 20:37:63
    INDEX 01 20:39:63
  TRACK 08 AUDIO
    TITLE "Dirty Little Secret"
    ISRC ITG272100062
    INDEX 00 25:12:02
    INDEX 01 25:14:02
  TRACK 09 AUDIO
    TITLE "Call Of The Wild"
    ISRC ITG272100063
    INDEX 00 29:02:40
    INDEX 01 29:05:54
  TRACK 10 AUDIO
    TITLE "Northbound"
    ISRC ITG272100064
    INDEX 00 33:46:02
    INDEX 01 33:48:02
  TRACK 11 AUDIO
    TITLE "Hard Love"
    ISRC ITG272100065
    INDEX 00 37:39:52
    INDEX 01 37:41:52
  TRACK 12 AUDIO
    TITLE "Silver Lining"
    ISRC ITG272100066
    INDEX 00 41:14:60
    INDEX 01 41:14:66
  TRACK 13 AUDIO
    TITLE "Dare Devil Heat 2020"
    ISRC ITG272100067
    INDEX 00 47:30:63
    INDEX 01 47:31:01






© Оформление и релиз by sergej644
раздаю с 12:00 до 02:00 ночи pb.wtf



Скачать Wig Wam - Collections через торрент https://i115.fastpic.ru/big/2021/0712/e6/cd96362a75715c4923ba6f84006cc8e6.png Скачать, смотреть онлайн Wig Wam - Collections бесплантно в хорошем качестве Трэклист Лейбл издания: Napalm RecordsСтрана-выпуска диска: EU Номер по каталогу: NPR 174 In my Dreams (3:02) Hard to be a ... 10 10 1
Торрент: Зарегистрирован [2021-07-12 10:33] · скачан: 1 раз
Статус: √ проверено
Размер: 2.23 GB
Как cкачать? Как скачать Wig Wam - Collections через торрент | UTorrent

28-11-2019 20:33  

Отключить вcю реклaмy на сайте

12-07-2021 19:11 Wig Wam - Collections Скачать торрент  

sergej644, pb.wtf



12-07-2021 19:11 Wig Wam - Collections Скачать торрент  

sergej644, pb.wtf



    Дорогой пользователь! Огромная просьба, поблагодарите релизера, оцените раздачу и оставьте свои комментарий, если Вы скачали Wig Wam - Collections через торрент бесплатно!
    Комментировать посты могут только пользователи прошедшие не сложную регистрацию
    Показать сообщения:    

    Wig Wam - Collections через торрент
    Скачать бесплатно Wig Wam - Collections
    Wig Wam - Collections скачать торрент
    Wig Wam - Collections смотреть онлайн
    Cкачать фильм Wig Wam - Collections бесплатно
    Wig Wam - Collections скачать торрент в хорошем качестве
    Wig Wam - Collections смотреть онлайн бесплатно в хорошем качестве


    Вы не можете начинать темы
    Вы не можете отвечать на сообщения
    Вы не можете редактировать свои сообщения
    Вы не можете удалять свои сообщения
    Вы не можете голосовать в опросах
    Вы не можете прикреплять файлы к сообщениям
    Вы можете скачивать файлы