1 сезон

3 сезон

iTunes

1

Line

MVO

iTunes

13

1 сезон

RePack

30

Deluxe

pack

Лицензия

ВАЖНО

ИГРА 18+

pack

RePack

MK11

RePack

jed

RePack

fifa19

RePack

RDR2

RePack

NEED FOR SPEED™ PAYBACK

4 сезон

9 сезон

Бесстыжие 9 сезон

Все сериалы

все сериалы на PB.wtf

RePack

FAR CRY 5

Anonymous, доброй ночи, мы катастрофически не успеваем собрать деньги на оплату серверов, помогите нам пожалуйста 5,10,15р., для нас важна любая помощь . В качестве благодарности мы отключим Вам всю рекламу на сайте (укажите свой ник в строку Ваше имя)!

×
  
Magnet ссылка

Рок Дог 2 / Rock Dog 2 (Марк Балдо) [2021, Мультфильм, комедия, приключения, семейный, BDRip 720p] DUB [Line] pb.wtf

Рок Дог 2 через торрент pb.wtf

Раздают: 10 [ 335 KB/s ]
Размер: 3.01 GB | Добавлен: 17 д. назад | Торрент скачан:90 раз
Скачать  

12-07-2021 16:35 Рок Дог 2 Скачать торрент  

Рок Дог 2 | Rock Dog 2
Год выпуска: 2021
Страна: США
Выпущено: HB Wink Animation, Lionsgate, Splash Entertainment
Жанр: Мультфильм, комедия, приключения, семейный
Продолжительность: 01:30:08
Перевод: Дублированный | Line
Субтитры: отсутствуют

Режиссер: Марк Балдо

rating

В ролях: Грэм Хэмилтон, Эндрю Френсис, Эшли Болл, Кэтлин Барр, Брайан Драммонд, Джейсон Симпсон, Брайан Добсон, Джеймс Хигути, Донни Лукас, Ричард Ньюман

Описание: Знаменитый пес Боуди и его веселая рок-группа возвращаются. Музыканты уже представили миру свои песни, но останавливаться на достигнутом не собираются. Ребята готовы к грандиозному турне, в котором обретут настоящую славу. Но, как оказалось, у популярности есть и обратная сторона. Смогут ли друзья остаться самими собой, когда их имена будут на устах всего мира?

Качество: BDRip 720p
Формат: MKV

Видео: MPEG-4 AVC, 3884 Kb/s, 1280x692
Аудио #1 Russian: 48 kHz, AC3 Dolby Digital, 2/0 (L, R) ch, ~256 Kbps | DUB | Line | от KinoPub
Аудио #2 English: 48 kHz, AC3 Dolby Digital, 3/2 (L, C, R, l, r) + LFE ch, ~640 Kbps | Original
скриншот  скриншот  скриншот  скриншот  

Complete name : Rock.Dog.2.Rock.Around.the.Park.2021.BDRip.720p.x264.ELEKTRI4KA.UNIONGANG.mkv
Format : Matroska
Format version : Version 4
File size : 3.01 GiB
Duration : 1 h 30 min
Overall bit rate : 4 782 kb/s
Movie name : Rock.Dog.2.Rock.Around.the.Park.2021.BDRip.720p.x264.ELEKTRI4KA.UNIONGANG
Encoded date : UTC 2021-07-11 12:41:09
Writing application : mkvmerge v45.0.0 ('Heaven in Pennies') 64-bit
Writing library : libebml v1.3.10 + libmatroska v1.5.2
Cover : Yes
Attachments : cover_land.jpg / small_cover.jpg / small_cover_land.jpg / cover.jpg

Video
ID : 1
Format : AVC
Format/Info : Advanced Video Codec
Format profile : High@L4.1
Format settings : CABAC / 9 Ref Frames
Format settings, CABAC : Yes
Format settings, Reference : 9 frames
Codec ID : V_MPEG4/ISO/AVC
Duration : 1 h 30 min
Bit rate : 3 884 kb/s
Width : 1 280 pixels
Height : 692 pixels
Display aspect ratio : 1.85:1
Frame rate mode : Constant
Frame rate : 23.976 (24000/1001) FPS
Color space : YUV
Chroma subsampling : 4:2:0
Bit depth : 8 bits
Scan type : Progressive
Bits/(Pixel*Frame) : 0.183
Stream size : 2.45 GiB (81%)
Writing library : x264 core 157 r2938 2b00a84 TnP@MTeam Mod
Encoding settings : cabac=1 / ref=9 / deblock=1:-3:-3 / analyse=0x3:0x133 / me=umh / subme=10 / psy=1 / psy_rd=1.05:0.00 / mixed_ref=1 / me_range=32 / chroma_me=1 / trellis=2 / 8x8dct=1 / cqm=0 / deadzone=21, 11 / fast_pskip=0 / chroma_qp_offset=-2 / threads=12 / lookahead_threads=2 / sliced_threads=0 / nr=0 / decimate=0 / interlaced=0 / bluray_compat=0 / constrained_intra=0 / bframes=8 / b_pyramid=2 / b_adapt=2 / b_bias=0 / direct=3 / weightb=1 / open_gop=0 / weightp=2 / keyint=250 / keyint_min=24 / scenecut=40 / intra_refresh=0 / rc_lookahead=250 / rc=crf / mbtree=0 / crf=16.8 / qcomp=0.60 / qpmin=0 / qpmax=69 / qpstep=4 / vbv_maxrate=62500 / vbv_bufsize=78125 / crf_max=0.0 / nal_hrd=none / filler=0 / ip_ratio=1.30 / pb_ratio=1.20 / aq=3:0.80
Language : English
Default : Yes
Forced : No
Color range : Limited
Color primaries : BT.709
Matrix coefficients : BT.709

Audio #1
ID : 2
Format : AC-3
Format/Info : Audio Coding 3
Commercial name : Dolby Digital
Codec ID : A_AC3
Duration : 1 h 30 min
Bit rate mode : Constant
Bit rate : 256 kb/s
Channel(s) : 2 channels
Channel layout : L R
Sampling rate : 48.0 kHz
Frame rate : 31.250 FPS (1536 SPF)
Compression mode : Lossy
Stream size : 165 MiB (5%)
Title : Dub | Line
Language : Russian
Service kind : Complete Main
Default : Yes
Forced : Yes

Audio #2
ID : 3
Format : AC-3
Format/Info : Audio Coding 3
Commercial name : Dolby Digital
Codec ID : A_AC3
Duration : 1 h 30 min
Bit rate mode : Constant
Bit rate : 640 kb/s
Channel(s) : 6 channels
Channel layout : L R C LFE Ls Rs
Sampling rate : 48.0 kHz
Frame rate : 31.250 FPS (1536 SPF)
Compression mode : Lossy
Stream size : 413 MiB (13%)
Title : Original
Language : English
Service kind : Complete Main
Default : No
Forced : No

Text #1
ID : 4
Format : UTF-8
Codec ID : S_TEXT/UTF8
Codec ID/Info : UTF-8 Plain Text
Duration : 1 h 26 min
Bit rate : 63 b/s
Count of elements : 1693
Stream size : 40.3 KiB (0%)
Language : English
Default : No
Forced : No

Text #2
ID : 5
Format : UTF-8
Codec ID : S_TEXT/UTF8
Codec ID/Info : UTF-8 Plain Text
Duration : 1 h 26 min
Bit rate : 54 b/s
Count of elements : 1249
Stream size : 34.5 KiB (0%)
Title : SRT
Language : English
Default : No
Forced : No

Menu
00:00:00.000 : Chapter 01
00:05:28.119 : Chapter 02
00:10:17.742 : Chapter 03
00:15:03.903 : Chapter 04
00:21:31.749 : Chapter 05
00:26:16.492 : Chapter 06
00:32:48.133 : Chapter 07
00:39:08.763 : Chapter 08
00:44:50.938 : Chapter 09
00:49:30.092 : Chapter 10
00:55:19.650 : Chapter 11
01:00:39.636 : Chapter 12
01:06:33.740 : Chapter 13
01:11:59.148 : Chapter 14
01:17:51.000 : Chapter 15
01:24:22.724 : Chapter 16

pb.wtf



Скачать Рок Дог 2 через торрент https://i3.imageban.ru/out/2021/07/11/25e449cafcc7425469aecdf1669e401f.jpg Скачать фильм Рок Дог 2 через торрент бесплантно в хорошем качестве Описание: Знаменитый пес Боуди и его веселая рок-группа возвращаются. Музыканты уже представили миру свои песни, но останавливаться на ... 10 10 3
Info! Золотая раздача, скачанное не засчитывается.
Торрент: Зарегистрирован [2021-07-12 16:35] · скачан: 90 раз
Статус: T временная
Размер: 3.01 GB
Как cкачать? Как скачать Рок Дог 2 через торрент | UTorrent

% Раздел Тема Автор DL S | L
T Зарубежные Мультфильмы (BDRip 1080p, 720p, Blu-ray, BD-Remux) [ 6.33 GB ] Рок Дог 2 / Rock Dog 2 [2021 Мультфильм BDRip 1080p] DUB [Line] bober100 Скачать
8 | 0

28-11-2019 20:33  

Отключить всю рекламу на сайте

    Дорогой пользователь! Огромная просьба, поблагодарите релизера, оцените раздачу и оставьте свои комментарий, если Вы скачали Рок Дог 2 через торрент бесплатно! Внесите свою лепту в развитие PiratBit!
    Комментировать посты могут только пользователи прошедшие не сложную регистрацию
    Показать сообщения:    

    Рок Дог 2 через торрент
    Скачать бесплатно Рок Дог 2
    Рок Дог 2 скачать торрент
    Рок Дог 2 смотреть онлайн
    Cкачать фильм Рок Дог 2 бесплатно
    Рок Дог 2 скачать торрент в хорошем качестве
    Рок Дог 2 смотреть онлайн бесплатно в хорошем качестве


    Вы не можете начинать темы
    Вы не можете отвечать на сообщения
    Вы не можете редактировать свои сообщения
    Вы не можете удалять свои сообщения
    Вы не можете голосовать в опросах
    Вы не можете прикреплять файлы к сообщениям
    Вы можете скачивать файлы