1 сезон

3 сезон

iTunes

1

Line

MVO

iTunes

13

1 сезон

RePack

30

Deluxe

pack

Лицензия

ВАЖНО

ИГРА 18+

pack

RePack

MK11

RePack

jed

RePack

fifa19

RePack

RDR2

RePack

NEED FOR SPEED™ PAYBACK

4 сезон

9 сезон

Бесстыжие 9 сезон

Все сериалы

все сериалы на PB.wtf

RePack

FAR CRY 5

Anonymous, доброй ночи, мы катастрофически не успеваем собрать деньги на оплату серверов, помогите нам пожалуйста 5,10,15р., для нас важна любая помощь . В качестве благодарности мы отключим Вам всю рекламу на сайте (укажите свой ник в строку Ваше имя)!

×
  
Magnet ссылка

Хозяин / Остров Грэнд-Айл / Grand Isle (Стивен С. Кампанелли) [2019, Триллер, боевик, HDRip-AVC] DUB [IVI] от MediaBit pb.wtf

Хозяин через торрент pb.wtf

Раздают: 8 [ 152 KB/s ]
Размер: 2.05 GB | Добавлен: 16 д. назад | Торрент скачан:123 раза
Скачать  

13-07-2021 18:40 Хозяин Скачать торрент  


Хозяин / Остров Грэнд-Айл / Grand Isle
Информация о фильме:
Название: Хозяин / Остров Грэнд-Айл
Оригинальное название: Grand Isle
Год выхода: 2019
Жанр: Триллер, боевик
Режиссер: Стивен С. Кампанелли
В ролях: Николас Кейдж, Сулай Энао, Келси Грэммер, Люк Бенвард, КаДи Стрикленд, Беатрис Эрнандес, Эмили Мари Палмер, Оливер Тревена, Дункан Кэйси, Изабелла Грейс Роарк

Описание: Бадди — красавец и по совместительству мастер на все руки — отправляется чинить ограду в доме бывшего морского пехотинца Уолтера. Из-за внезапно налетевшего урагана Бадди вынужден остаться на ночь в доме Уолтера и его прекрасной, но опасной жены. Между хозяином и гостем начинается опасная игра, ставка в которой — жизнь.



Страна: США
Студия: BondIt Media Capital, Film Keyz Production, Jeff Rice Films
Продолжительность: 01:37:17
Перевод: Дублированное - IVI



Информация о файле:
Кодек: AVC
Формат: MKV
Качество: HDRip-AVC
Видео: MPEG-4 AVC, 1024x468, 23.976 fps, 2183 kbps
Аудио RU: AC3, 6 ch, 48 kHz, 384 kbps
Аудио EN: AC3, 6 ch, 48 kHz, 448 kbps
Субтитры: English, Dutch
Навигация по главам: Да

x264 info: frame I:1112 Avg QP:13.95 size: 89139
x264 info: frame P:26594 Avg QP:16.84 size: 28211
x264 info: frame B:112244 Avg QP:19.39 size: 6622
x264 info: consecutive B-frames: 1.6% 1.4% 4.5% 9.0% 8.4% 64.8% 4.3% 0.7% 3.5% 0.6% 0.7% 0.4% 0.2%
General
Unique ID : 171752224119903514724136781290050364804 (0x8136466FE31EAF10C288DDC4F06F2584)
Complete name : D:uTorrentРипы wolf1245Grand.Isle.2019.DUB.IVI.HDRip-AVC.[wolf1245.MediaBit].mkv
Format : Matroska
Format version : Version 4
File size : 2.05 GiB
Duration : 1 h 37 min
Overall bit rate : 3 017 kb/s
Movie name : Grand.Isle.2019.DUB.IVI.HDRip-AVC.[wolf1245.MediaBit]
Encoded date : UTC 2021-07-13 18:29:50
Writing application : mkvmerge v59.0.0 ('Shining Star') 64-bit
Writing library : libebml v1.4.2 + libmatroska v1.6.4
Video
ID : 1
Format : AVC
Format/Info : Advanced Video Codec
Format profile : High@L4.1
Format settings : CABAC / 14 Ref Frames
Format settings, CABAC : Yes
Format settings, Reference frames : 14 frames
Codec ID : V_MPEG4/ISO/AVC
Duration : 1 h 37 min
Bit rate : 2 183 kb/s
Width : 1 024 pixels
Height : 468 pixels
Display aspect ratio : 2.2:1
Frame rate mode : Constant
Frame rate : 23.976 (24000/1001) FPS
Color space : YUV
Chroma subsampling : 4:2:0
Bit depth : 8 bits
Scan type : Progressive
Bits/(Pixel*Frame) : 0.190
Stream size : 1.48 GiB (72%)
Title : .[wolf1245.MediaBit]
Writing library : x264 core 157 r2958 57baac4
Encoding settings : cabac=1 / ref=14 / deblock=1:-3:-3 / analyse=0x3:0x133 / me=umh / subme=11 / psy=1 / psy_rd=1.00:0.20 / mixed_ref=1 / me_range=48 / chroma_me=1 / trellis=2 / 8x8dct=1 / cqm=0 / deadzone=21,11 / fast_pskip=1 / chroma_qp_offset=-3 / threads=10 / lookahead_threads=2 / sliced_threads=0 / nr=0 / decimate=1 / interlaced=0 / bluray_compat=0 / constrained_intra=0 / bframes=12 / b_pyramid=2 / b_adapt=2 / b_bias=0 / direct=3 / weightb=1 / open_gop=0 / weightp=2 / keyint=240 / keyint_min=24 / scenecut=40 / intra_refresh=0 / rc_lookahead=60 / rc=2pass / mbtree=1 / bitrate=2183 / ratetol=1.0 / qcomp=0.60 / qpmin=0 / qpmax=69 / qpstep=4 / cplxblur=20.0 / qblur=0.5 / vbv_maxrate=50000 / vbv_bufsize=62500 / nal_hrd=none / filler=0 / ip_ratio=1.40 / aq=1:0.80
Language : English
Default : Yes
Forced : No
Color range : Limited
Color primaries : BT.709
Transfer characteristics : BT.709
Matrix coefficients : BT.709
Audio #1
ID : 2
Format : AC-3
Format/Info : Audio Coding 3
Commercial name : Dolby Digital
Codec ID : A_AC3
Duration : 1 h 37 min
Bit rate mode : Constant
Bit rate : 384 kb/s
Channel(s) : 6 channels
Channel layout : L R C LFE Ls Rs
Sampling rate : 48.0 kHz
Frame rate : 31.250 FPS (1536 SPF)
Bit depth : 16 bits
Compression mode : Lossy
Stream size : 267 MiB (13%)
Title : DUB | (IVI)
Language : Russian
Service kind : Complete Main
Default : Yes
Forced : No
Audio #2
ID : 3
Format : AC-3
Format/Info : Audio Coding 3
Commercial name : Dolby Digital
Codec ID : A_AC3
Duration : 1 h 37 min
Bit rate mode : Constant
Bit rate : 448 kb/s
Channel(s) : 6 channels
Channel layout : L R C LFE Ls Rs
Sampling rate : 48.0 kHz
Frame rate : 31.250 FPS (1536 SPF)
Bit depth : 16 bits
Compression mode : Lossy
Stream size : 312 MiB (15%)
Title : Original
Language : English
Service kind : Complete Main
Default : No
Forced : No
Text #1
ID : 4
Format : UTF-8
Codec ID : S_TEXT/UTF8
Codec ID/Info : UTF-8 Plain Text
Duration : 1 h 35 min
Bit rate : 44 b/s
Count of elements : 1149
Stream size : 31.0 KiB (0%)
Language : English
Default : No
Forced : No
Text #2
ID : 5
Format : UTF-8
Codec ID : S_TEXT/UTF8
Codec ID/Info : UTF-8 Plain Text
Duration : 1 h 35 min
Bit rate : 45 b/s
Count of elements : 925
Stream size : 32.1 KiB (0%)
Language : Dutch
Default : No
Forced : No
Menu
00:00:00.000 : :Most Adorable Little Girl
00:06:06.240 : :Success Story
00:15:55.162 : :Who Are You Calling Ma'am?
00:23:30.283 : :Is It Yes or No?
00:32:34.077 : :The 4th Teenager
00:40:36.725 : :A State of Emergency
00:51:06.063 : :This Song Was Banned
00:56:13.203 : :Morals
01:03:28.429 : :Ain't Gonna Happen
01:13:52.594 : :Big City Nonsense
01:23:06.398 : :We Gotta Run!
01:34:26.952 : :End Credits
Релиз от: &
Автор релиза:
pb.wtf



Скачать Хозяин через торрент https://i115.fastpic.ru/big/2021/0713/09/f48304f4339d34572b987b7678c5a009.jpg Скачать фильм Хозяин через торрент бесплантно в хорошем качестве Описание: Бадди — красавец и по совместительству мастер на все руки — отправляется чинить ограду в доме бывшего морского пехотинца ... 10 10 5
Торрент: Зарегистрирован [2021-07-13 18:40] · скачан: 123 раз
Статус: √ проверено
Размер: 2.05 GB
Как cкачать? Как скачать Хозяин через торрент | UTorrent

28-11-2019 20:33  

Отключить всю рекламу на сайте

    Дорогой пользователь! Огромная просьба, поблагодарите релизера, оцените раздачу и оставьте свои комментарий, если Вы скачали Хозяин через торрент бесплатно! Внесите свою лепту в развитие PiratBit!
    Комментировать посты могут только пользователи прошедшие не сложную регистрацию
    Показать сообщения:    

    Хозяин через торрент
    Скачать бесплатно Хозяин
    Хозяин скачать торрент
    Хозяин смотреть онлайн
    Cкачать фильм Хозяин бесплатно
    Хозяин скачать торрент в хорошем качестве
    Хозяин смотреть онлайн бесплатно в хорошем качестве


    Вы не можете начинать темы
    Вы не можете отвечать на сообщения
    Вы не можете редактировать свои сообщения
    Вы не можете удалять свои сообщения
    Вы не можете голосовать в опросах
    Вы не можете прикреплять файлы к сообщениям
    Вы можете скачивать файлы