Присоединяйтесь к нам в Telegram!, здесь всегда актуальный адрес сайта, оперативная поддержка и многое другое!!

>

5.9

iTunes

7.4

iTunes

9.4

1 сезон

1

7.4

2 сезон

7.2

iTunes

7.3

1 сезон

13

6.1

iTunes

8.3

Пиратка

30

ULTIMATE

pack

9.9

Лицензия

ВАЖНО

ИГРА 18+

pack

7.3

RePack

MK11

7.7

RePack

jed

7.8

RePack

fifa19

8.5

RePack

RDR2

RePack

NEED FOR SPEED™ PAYBACK

5 сезон

9 сезон

Бесстыжие 9 сезон

Все сериалы

все сериалы на PB.wtf

RePack

FAR CRY 5

Anonymous, доброе утро, мы катастрофически не успеваем собрать деньги на оплату серверов, помогите нам пожалуйста 5,10,15р., для нас важна любая помощь . В качестве благодарности мы отключим Вам всю рекламу на сайте (укажите свой ник в строку Ваше имя)!

×
  
Magnet ссылка

Ледяной драйв / The Ice Road (Джонатан Хенсли) [2021, триллер, драма, приключения, WEB-DLRip-AVC] [DUB] [iTunes] pb.wtf

Ледяной драйв через торрент pb.wtf

Размер: 1.57 GB | Добавлен: 4 мес. 20 д. назад | Торрент скачан:131 раз
Смотреть онлайн Ледяной драйв | Скачать    Ребята, помогите собрать деньги на оплату серверов!!!

16-07-2021 10:30 Ледяной драйв Скачать торрент  

Ледяной драйв / The Ice Road

Год выпуска: 2021
Страна: США
Жанр: триллер, драма, приключения
Продолжительность: 01:49:15
✦ Перевод: Профессиональный (полное дублирование) | [iTunes]
Субтитры: Русские (форс., полные), Английские (полные)

Режиссер: Джонатан Хенсли

В ролях: Лиам Нисон, Маркус Томас, Лоренс Фишбёрн, Эмбер Мидфандер, Бенджамин Уокер, Холт Маккэллани, Мэтт МакКой, Мартин Сенсмейер, Мэтт Сэлинджер, Чад Брюс

Описание: Тонкий тающий лёд. Вес грузовика — 33 тонны. Проехать по замерзшей поверхности океана возможно только на определенной скорости, а остановка или ускорение означают верную смерть. Но именно такая задача стоит перед колонной грузовиков во главе с опытным водителем Майком. Только они могут спасти людей из обрушившейся алмазной шахты. Однако ни трескающийся под колёсами лёд, ни массивная снежная буря не сравнятся с угрозой, которая ждёт водителей впереди.

ratingскриншот  

Сэмпл |
Качество: WEB-DLRip-AVC
Формат: MKV
Видео: AVC, 1108x464 (2.40:1), 23.976 fps, ~1674 kbps avg, 0.136 bit/pixel
Аудио: 48 kHz, AC3 Dolby Digital, 3/2 (L,C,R,l,r) + LFE ch, ~384 kbps avg
скриншот  скриншот  скриншот  
Общее
Полное имя : G:\The_Ice_Road_2021_WEB-DLRip-AVC_by_Dalemake.mkv
Формат : Matroska
Версия формата : Version 4
Размер файла : 1,57 Гбайт
Продолжительность : 1 ч. 49 м.
Общий поток : 2061 Кбит/сек
Название фильма : [The_Ice_Road_2021_All_Films_Rutracker]
Дата кодирования : UTC 2021-07-16 09:52:58
Программа кодирования : mkvmerge v44.0.0 ('Domino') 64-bit
Библиотека кодирования : libebml v1.3.10 + libmatroska v1.5.2
Attachments : Poster 01.jpg

Видео
Идентификатор : 1
Формат : AVC
Формат/Информация : Advanced Video Codec
Профиль формата : High@L4.1
Настройки формата : CABAC / 12 Ref Frames
Параметр CABAC формата : Да
Параметр RefFrames формата : 12 кадров
Идентификатор кодека : V_MPEG4/ISO/AVC
Продолжительность : 1 ч. 49 м.
Битрейт : 1674 Кбит/сек
Ширина : 1108 пикселей
Высота : 464 пикселя
Соотношение сторон : 2,40:1
Режим частоты кадров : Постоянный
Частота кадров : 23,976 кадра/сек
Цветовое пространство : YUV
Субдискретизация насыщенности : 4:2:0
Битовая глубина : 8 бит
Тип развёртки : Прогрессивная
Бит/(Пиксели*Кадры) : 0.136
Размер потока : 1,28 Гбайт (81%)
Заголовок : [The_Ice_Road_2021_All_Films_Rutracker]
Библиотека кодирования : x264 core 160 r3009 4c9b076
Настройки программы : cabac=1 / ref=12 / deblock=1:-2:-2 / analyse=0x3:0x113 / me=umh / subme=11 / psy=1 / psy_rd=1.00:0.00 / mixed_ref=1 / me_range=32 / chroma_me=1 / trellis=2 / 8x8dct=1 / cqm=0 / deadzone=21,11 / fast_pskip=0 / chroma_qp_offset=-4 / threads=3 / lookahead_threads=1 / sliced_threads=0 / nr=0 / decimate=1 / interlaced=0 / bluray_compat=0 / constrained_intra=0 / bframes=10 / b_pyramid=2 / b_adapt=2 / b_bias=0 / direct=3 / weightb=1 / open_gop=0 / weightp=2 / keyint=240 / keyint_min=23 / scenecut=40 / intra_refresh=0 / rc_lookahead=60 / rc=crf / mbtree=0 / crf=18.8 / qcomp=0.60 / qpmin=0 / qpmax=69 / qpstep=4 / vbv_maxrate=78125 / vbv_bufsize=62500 / crf_max=0.0 / nal_hrd=none / filler=0 / ip_ratio=1.40 / pb_ratio=1.35 / aq=1:1.00
Язык : English
Default : Да
Forced : Нет

Аудио
Идентификатор : 2
Формат : AC-3
Формат/Информация : Audio Coding 3
Коммерческое название : Dolby Digital
Идентификатор кодека : A_AC3
Продолжительность : 1 ч. 49 м.
Вид битрейта : Постоянный
Битрейт : 384 Кбит/сек
Каналы : 6 каналов
ChannelLayout : L R C LFE Ls Rs
Частота : 48,0 КГц
Частота кадров : 31,250 кадров/сек (1536 SPF)
Битовая глубина : 16 бит
Метод сжатия : С потерями
Размер потока : 300 Мбайт (19%)
Заголовок : Dub - iTunes Russia
Язык : Russian
ServiceKind/String : Complete Main
Default : Да
Forced : Нет

Текст #1
Идентификатор : 3
Формат : UTF-8
Идентификатор кодека : S_TEXT/UTF8
Идентификатор кодека/Информация : UTF-8 Plain Text
Продолжительность : 1 ч. 41 м.
Битрейт : 2 бит/сек
ElementCount : 20
Размер потока : 1,72 Кбайт (0%)
Заголовок : Forced
Язык : Russian
Default : Да
Forced : Нет

Текст #2
Идентификатор : 4
Формат : UTF-8
Идентификатор кодека : S_TEXT/UTF8
Идентификатор кодека/Информация : UTF-8 Plain Text
Продолжительность : 1 ч. 40 м.
Битрейт : 68 бит/сек
ElementCount : 856
Размер потока : 50,1 Кбайт (0%)
Заголовок : Full
Язык : Russian
Default : Нет
Forced : Нет

Текст #3
Идентификатор : 5
Формат : UTF-8
Идентификатор кодека : S_TEXT/UTF8
Идентификатор кодека/Информация : UTF-8 Plain Text
Продолжительность : 1 ч. 44 м.
Битрейт : 40 бит/сек
ElementCount : 1112
Размер потока : 31,1 Кбайт (0%)
Заголовок : Full
Язык : English
Default : Нет
Forced : Нет

pb.wtf



Скачать Ледяной драйв через торрент https://i5.imageban.ru/out/2021/06/25/40acda4b9d6ca1a3ed80ee14c547b107.jpg Скачать, смотреть онлайн Ледяной драйв бесплантно в хорошем качестве Описание: Тонкий тающий лёд. Вес грузовика — 33 тонны. Проехать по замерзшей поверхности океана возможно только на определенной скорости, а ... 9.7 10 7
Торрент: Зарегистрирован [2021-07-16 10:30] · скачан: 131 раз
Статус: √ проверено
Размер: 1.57 GB
Как cкачать? Как скачать Ледяной драйв через торрент | UTorrent

% Раздел Тема Автор DL S | L
Фильмы [HD 720p, 1080p] (Хороший звук DUB, MVO) [ 7.1 GB ] Ледяной драйв / The Ice Road [2021 BDRip 1080p] DUB [Мосфильм-Мастер] bober100 Скачать
8 | 0
Фильмы 2021 [DVDrip, WEB-DLRip, HDrip] (DUB, MVO) [ 2.18 GB ] Ледяной драйв / The Ice Road [2021 BDRip] - [Мосфильм-Мастер] Twi7ter Скачать
55 | 12
Фильмы 2021 [DVDrip, WEB-DLRip, HDrip] (DUB, MVO) [ 1.46 GB ] Ледяной драйв / The Ice Road [2021 BDRip] - [Мосфильм-Мастер] Twi7ter Скачать
24 | 0
Фильмы 2021 [DVDrip, WEB-DLRip, HDrip] (DUB, MVO) [ 2.2 GB ] Ледяной драйв / The Ice Road [2021 WEB-DLRip-AVC] от MediaBit Lithuania Скачать
5 | 0
Фильмы 2021 [DVDrip, WEB-DLRip, HDrip] (DUB, MVO) [ 1.48 GB ] Ледяной драйв / The Ice Road [2021 WEB-DLRip-AVC] [Локализованный видеоряд] Dub [КиноПоиск HD] sokol_ok Скачать
32 | 0
Фильмы 2021 [DVDrip, WEB-DLRip, HDrip] (DUB, MVO) [ 1.46 GB ] Ледяной драйв / The Ice Road [2021 WEB-DLRip] - [Мосфильм-Мастер] Twi7ter Скачать
10 | 0
T Ultra HD (UHD: 2K, 4K, 8K) — видео сверхвысокой чёткости [ 12.09 GB ] Ледяной драйв / The Ice Road [2021 WEBRip 2160p] DUB [Line] +DVO [Pazl Voice] bober100 Скачать
1 | 0

28-11-2019 20:33  

Отключить всю рекламу на сайте

16-07-2021 16:36 Ледяной драйв Скачать торрент  

бредpb.wtf



    Дорогой пользователь! Огромная просьба, поблагодарите релизера, оцените раздачу и оставьте свои комментарий, если Вы скачали Ледяной драйв через торрент бесплатно!
    Комментировать посты могут только пользователи прошедшие не сложную регистрацию
    Показать сообщения:    

    Ледяной драйв через торрент
    Скачать бесплатно Ледяной драйв
    Ледяной драйв скачать торрент
    Ледяной драйв смотреть онлайн
    Cкачать фильм Ледяной драйв бесплатно
    Ледяной драйв скачать торрент в хорошем качестве
    Ледяной драйв смотреть онлайн бесплатно в хорошем качестве


    Вы не можете начинать темы
    Вы не можете отвечать на сообщения
    Вы не можете редактировать свои сообщения
    Вы не можете удалять свои сообщения
    Вы не можете голосовать в опросах
    Вы не можете прикреплять файлы к сообщениям
    Вы можете скачивать файлы