1 сезон

3 сезон

iTunes

1

Line

MVO

iTunes

13

1 сезон

RePack

30

Deluxe

pack

Лицензия

ВАЖНО

ИГРА 18+

pack

RePack

MK11

RePack

jed

RePack

fifa19

RePack

RDR2

RePack

NEED FOR SPEED™ PAYBACK

4 сезон

9 сезон

Бесстыжие 9 сезон

Все сериалы

все сериалы на PB.wtf

RePack

FAR CRY 5

Anonymous, доброй ночи, мы катастрофически не успеваем собрать деньги на оплату серверов, помогите нам пожалуйста 5,10,15р., для нас важна любая помощь . В качестве благодарности мы отключим Вам всю рекламу на сайте (укажите свой ник в строку Ваше имя)!

×
  
Magnet ссылка

Кунхам: Пограничный остров / Gun-ham-do / Gunhamdo / The Battleship Island (Рю Сын-ван) [2017, Военный, драма, боевик, история, HDRip-AVC] DUB [Режиссерская версия, iTunes] от MediaBit pb.wtf

Кунхам: Пограничный остров через торрент pb.wtf

Раздают: 2 [ 0 KB/s ]
Размер: 2.22 GB | Добавлен: 12 д. назад | Торрент скачан:25 раз
Скачать  

17-07-2021 21:09 Кунхам: Пограничный остров Скачать торрент  


Кунхам: Пограничный остров / Gun-ham-do / Gunhamdo / The Battleship Island
Информация о фильме:
Название: Кунхам: Пограничный остров
Оригинальное название: Gun-ham-do / Gunhamdo / The Battleship Island
Год выхода: 2017
Жанр: Военный, драма, боевик, история
Режиссер: Рю Сын-ван
В ролях: Хван Джон-мин, Со Джи-соп, Сон Джун-ги, Ли Джон-хён, Ким Су-ан, Ли Гён-ён, Ким Мин-джэ, Ким Ин-у, Юн Гён-хо, Щин Сын-хван

Описание: Японцы называли этот остров Хасима. Шесть гектаров земли и бетона в 15 километрах от побережья Нагасаки. Здесь с конца XIX века профессиональные шахтеры добывали уголь из подводных забоев. Когда наступила война, и все ушли на фронт, на смену шахтерам стали привозить военнопленных китайцев и корейских переселенцев. Корейцы называли этот остров Кунхам. Или Остров-Броненосец. Для них он был тюрьмой, из которой невозможно сбежать. Руководитель оркестра Ли Ган-ок поддался на уговоры японского рекрутёра, который обещал бесплатную дорогу и работу в Японии. Так он с малолетней дочерью оказался на Кунхаме в компании соотечественников, среди которых можно было встретить и бандитов, и героев-подпольщиков. И каждый из них был готов принять участие в побеге.



Страна: Корея Южная
Студия: CJ Entertainment, FilmK, Filmmaker R&K
Продолжительность: 02:31:17
Перевод: Профессиональный (полное дублирование) - iTunes



Информация о файле:
Кодек: AVC
Формат: MKV
Качество: HDRip-AVC
Видео: MPEG-4 AVC, 1024x428, 23.976 fps, 1718 kbps
Аудио RU: AC3, 6 ch, 48 kHz, 384 kbps
Субтитры: Английские (Full)
Навигация по главам: Да

x264 info: frame I:1591 Avg QP:17.03 size: 56589
x264 info: frame P:54367 Avg QP:21.15 size: 17928
x264 info: frame B:161661 Avg QP:23.08 size: 5274
General
Unique ID : 257940772795483441769897024493379334938 (0xC20D95F85569547D06115A38BAB7331A)
Complete name : D:uTorrentРипы wolf1245Kunxam.2017.DUB.HDRip-AVC.[wolf1245.MediaBit].mkv
Format : Matroska
Format version : Version 4
File size : 2.22 GiB
Duration : 2 h 31 min
Overall bit rate : 2 104 kb/s
Movie name : Kunxam.2017.DUB.HDRip-AVC.[wolf1245.MediaBit]
Encoded date : UTC 2021-07-17 20:54:50
Writing application : mkvmerge v59.0.0 ('Shining Star') 64-bit
Writing library : libebml v1.4.2 + libmatroska v1.6.4
Cover : Yes
Attachments : cover.jpg
Video
ID : 1
Format : AVC
Format/Info : Advanced Video Codec
Format profile : High@L4.1
Format settings : CABAC / 14 Ref Frames
Format settings, CABAC : Yes
Format settings, Reference frames : 14 frames
Codec ID : V_MPEG4/ISO/AVC
Duration : 2 h 31 min
Bit rate : 1 718 kb/s
Width : 1 024 pixels
Height : 428 pixels
Display aspect ratio : 2.40:1
Frame rate mode : Constant
Frame rate : 23.976 (24000/1001) FPS
Color space : YUV
Chroma subsampling : 4:2:0
Bit depth : 8 bits
Scan type : Progressive
Bits/(Pixel*Frame) : 0.163
Stream size : 1.81 GiB (82%)
Title : .[wolf1245.MediaBit]
Writing library : x264 core 157 r2958 57baac4
Encoding settings : cabac=1 / ref=14 / deblock=1:-3:-2 / analyse=0x3:0x133 / me=umh / subme=11 / psy=1 / psy_rd=1.00:0.20 / mixed_ref=1 / me_range=48 / chroma_me=1 / trellis=2 / 8x8dct=1 / cqm=0 / deadzone=21,11 / fast_pskip=1 / chroma_qp_offset=-3 / threads=10 / lookahead_threads=2 / sliced_threads=0 / nr=0 / decimate=1 / interlaced=0 / bluray_compat=0 / constrained_intra=0 / bframes=10 / b_pyramid=2 / b_adapt=2 / b_bias=0 / direct=3 / weightb=1 / open_gop=0 / weightp=2 / keyint=240 / keyint_min=24 / scenecut=40 / intra_refresh=0 / rc_lookahead=60 / rc=2pass / mbtree=1 / bitrate=1718 / ratetol=1.0 / qcomp=0.60 / qpmin=0 / qpmax=69 / qpstep=4 / cplxblur=20.0 / qblur=0.5 / vbv_maxrate=50000 / vbv_bufsize=62500 / nal_hrd=none / filler=0 / ip_ratio=1.40 / aq=3:0.80
Language : French
Default : Yes
Forced : No
Audio
ID : 2
Format : AC-3
Format/Info : Audio Coding 3
Commercial name : Dolby Digital
Codec ID : A_AC3
Duration : 2 h 31 min
Bit rate mode : Constant
Bit rate : 384 kb/s
Channel(s) : 6 channels
Channel layout : L R C LFE Ls Rs
Sampling rate : 48.0 kHz
Frame rate : 31.250 FPS (1536 SPF)
Bit depth : 16 bits
Compression mode : Lossy
Stream size : 415 MiB (18%)
Title : DUB | iTunes
Language : Russian
Service kind : Complete Main
Default : Yes
Forced : No
Text
ID : 3
Format : UTF-8
Codec ID : S_TEXT/UTF8
Codec ID/Info : UTF-8 Plain Text
Duration : 2 h 27 min
Bit rate : 50 b/s
Count of elements : 1888
Stream size : 54.6 KiB (0%)
Title : Full
Language : English
Default : No
Forced : No
Menu
00:00:00.000 : :fra: 01
00:08:42.688 : :fra: 02
00:17:47.358 : :fra: 03
00:30:49.598 : :fra: 04
00:38:41.611 : :fra: 05
00:51:49.690 : :fra: 06
01:01:37.777 : :fra: 07
01:13:12.179 : :fra: 08
01:22:36.785 : :fra: 09
01:32:51.441 : :fra: 10
01:43:19.485 : :fra: 11
01:52:29.368 : :fra: 12
02:00:31.015 : :fra: 13
02:11:00.269 : :fra: 14
02:19:15.847 : :fra: 15
02:27:31.342 : :fra: 16
Релиз от: &
Автор релиза:
pb.wtf



Скачать Кунхам: Пограничный остров через торрент https://i115.fastpic.ru/big/2021/0717/1d/ac35ac19e741b25aa18116c6771d881d.jpg Скачать фильм Кунхам: Пограничный остров через торрент бесплантно в хорошем качестве Описание: Японцы называли этот остров Хасима. Шесть гектаров земли и бетона в 15 километрах от побережья Нагасаки. Здесь с конца XIX века ... 10 10 3
Торрент: Зарегистрирован [2021-07-17 21:09] · скачан: 25 раз
Статус: √ проверено
Размер: 2.22 GB
Как cкачать? Как скачать Кунхам: Пограничный остров через торрент | UTorrent

28-11-2019 20:33  

Отключить всю рекламу на сайте

    Дорогой пользователь! Огромная просьба, поблагодарите релизера, оцените раздачу и оставьте свои комментарий, если Вы скачали Кунхам: Пограничный остров через торрент бесплатно! Внесите свою лепту в развитие PiratBit!
    Комментировать посты могут только пользователи прошедшие не сложную регистрацию
    Показать сообщения:    

    Кунхам: Пограничный остров через торрент
    Скачать бесплатно Кунхам: Пограничный остров
    Кунхам: Пограничный остров скачать торрент
    Кунхам: Пограничный остров смотреть онлайн
    Cкачать фильм Кунхам: Пограничный остров бесплатно
    Кунхам: Пограничный остров скачать торрент в хорошем качестве
    Кунхам: Пограничный остров смотреть онлайн бесплатно в хорошем качестве


    Вы не можете начинать темы
    Вы не можете отвечать на сообщения
    Вы не можете редактировать свои сообщения
    Вы не можете удалять свои сообщения
    Вы не можете голосовать в опросах
    Вы не можете прикреплять файлы к сообщениям
    Вы можете скачивать файлы