>

5.6

iTunes

6.1

MVO

5.7

MVO

1

7.4

1 сезон

6.8

iTunes

7.2

1 сезон

13

6.7

1 сезон

8.3

RePack

30

Deluxe

pack

9.9

Лицензия

ВАЖНО

ИГРА 18+

pack

7.3

RePack

MK11

7.7

RePack

jed

7.8

RePack

fifa19

8.5

RePack

RDR2

RePack

NEED FOR SPEED™ PAYBACK

4 сезон

9 сезон

Бесстыжие 9 сезон

Все сериалы

все сериалы на PB.wtf

RePack

FAR CRY 5

Anonymous, доброе утро, мы катастрофически не успеваем собрать деньги на оплату серверов, помогите нам пожалуйста 5,10,15р., для нас важна любая помощь . В качестве благодарности мы отключим Вам всю рекламу на сайте (укажите свой ник в строку Ваше имя)!

×
  
Magnet ссылка

Убийство по контракту / Убийца по контракту / Murder by Contract (Ирвинг Лернер) [1958, нуар, триллер, драма, криминал, BDRip-AVC] [VO] (Эрнест Мусин) pb.wtf

Убийство по контракту через торрент pb.wtf

Размер: 2.61 GB | Добавлен: 2 мес. 6 д. назад | Торрент скачан:2 раза
Смотреть онлайн Убийство по контракту | Скачать    Ребята, помогите собрать деньги на оплату серверов!!!

18-07-2021 05:15 Убийство по контракту Скачать торрент  

Убийство по контракту / Murder by ContractГод выпуска: 1958
Страна: США
Жанр: нуар, триллер, драма, криминал
Продолжительность: 01:20:29
Перевод: Любительский (одноголосый закадровый) Эрнест Мусин
Субтитры: русские, английские

Режиссер: Ирвинг Лернер / Irving Lerner

В ролях: Винс Эдвардс, Филлип Пайн, Хершел Бернарди, Каприс Ториел, Майкл Грэйнджер, Кэти Браун

Описание: Приехавшему в Лос-Анджелес киллеру дается задание убить женщину, находящуюся в хорошо охраняемом полицией доме. В фильме необычно всё – от затянутой экспозиции, рассказывающей как киллер получал первые заказы и навыки в своей профессии, до самого киллера, в исполнении молодого пижонистого итальянца Винса Эдвардса.
rating
Sample

Качество: BDRip-AVC
Формат: MKV
Видео: H.264, 1056x572 (1.85:1), 4249 kbps, 23.976 fps
Аудио №1: Russian, AC3, 1ch, 48 kHz, 192 kbps (Одноголосый, Эрнест Мусин)
Аудио №2: English, AC3, 1ch, 48 kHz, 192 kbps (Оригинал)
Субтитры №1: Russian, SRT, полные, bezumnypiero
Субтитры №2: English, SRT
General
Unique ID : 58236830700487584286707916525993623757 (0x2BD0016FBCC849A983F761586C3280CD)
Complete name : E:\Murder by Contract (1958) BDRip.mkv
Format : Matroska
Format version : Version 4
File size : 2.61 GiB
Duration : 1 h 20 min
Overall bit rate : 4 635 kb/s
Movie name : Murder by Contract (1958) BDRip
Encoded date : UTC 2021-07-17 13:38:19
Writing application : mkvmerge v59.0.0 ('Shining Star') 64-bit
Writing library : libebml v1.4.2 + libmatroska v1.6.4
Cover : Yes
Attachments : Cover.jpg

Video
ID : 1
Format : AVC
Format/Info : Advanced Video Codec
Format profile : High@L4.1
Format settings : CABAC / 12 Ref Frames
Format settings, CABAC : Yes
Format settings, ReFrames : 12 frames
Codec ID : V_MPEG4/ISO/AVC
Duration : 1 h 20 min
Bit rate : 4 249 kb/s
Width : 1 056 pixels
Height : 572 pixels
Display aspect ratio : 1.85:1
Frame rate mode : Constant
Frame rate : 23.976 (24000/1001) FPS
Color space : YUV
Chroma subsampling : 4:2:0
Bit depth : 8 bits
Scan type : Progressive
Bits/(Pixel*Frame) : 0.293
Stream size : 2.39 GiB (92%)
Writing library : x264 core 164 r3065 ae03d92
Encoding settings : cabac=1 / ref=12 / deblock=1:-3:-1 / analyse=0x3:0x133 / me=umh / subme=11 / psy=1 / psy_rd=1.20:0.03 / mixed_ref=1 / me_range=32 / chroma_me=1 / trellis=2 / 8x8dct=1 / cqm=0 / deadzone=21,11 / fast_pskip=0 / chroma_qp_offset=-3 / threads=18 / lookahead_threads=4 / sliced_threads=0 / nr=0 / decimate=1 / interlaced=0 / bluray_compat=0 / constrained_intra=0 / bframes=16 / b_pyramid=2 / b_adapt=2 / b_bias=0 / direct=1 / weightb=1 / open_gop=0 / weightp=2 / keyint=250 / keyint_min=23 / scenecut=40 / intra_refresh=0 / rc_lookahead=40 / rc=crf / mbtree=0 / crf=22.0 / qcomp=0.62 / qpmin=0 / qpmax=69 / qpstep=4 / vbv_maxrate=62500 / vbv_bufsize=78125 / crf_max=0.0 / nal_hrd=none / filler=0 / ip_ratio=1.40 / pb_ratio=1.25 / aq=2:0.90
Language : English
Default : Yes
Forced : No
Color range : Limited
Matrix coefficients : BT.709

Audio #1
ID : 2
Format : AC-3
Format/Info : Audio Coding 3
Commercial name : Dolby Digital
Codec ID : A_AC3
Duration : 1 h 20 min
Bit rate mode : Constant
Bit rate : 192 kb/s
Channel(s) : 1 channel
Channel layout : C
Sampling rate : 48.0 kHz
Frame rate : 31.250 FPS (1536 SPF)
Bit depth : 16 bits
Compression mode : Lossy
Stream size : 111 MiB (4%)
Title : VO, Эрнест Мусин
Language : Russian
Service kind : Complete Main
Default : Yes
Forced : No

Audio #2
ID : 3
Format : AC-3
Format/Info : Audio Coding 3
Commercial name : Dolby Digital
Codec ID : A_AC3
Duration : 1 h 20 min
Bit rate mode : Constant
Bit rate : 192 kb/s
Channel(s) : 1 channel
Channel layout : C
Sampling rate : 48.0 kHz
Frame rate : 31.250 FPS (1536 SPF)
Bit depth : 16 bits
Compression mode : Lossy
Stream size : 111 MiB (4%)
Title : Original
Language : English
Service kind : Complete Main
Default : No
Forced : No

Text #1
ID : 4
Format : UTF-8
Codec ID : S_TEXT/UTF8
Codec ID/Info : UTF-8 Plain Text
Duration : 1 h 20 min
Bit rate : 116 b/s
Count of elements : 836
Stream size : 68.7 KiB (0%)
Language : Russian
Default : No
Forced : No

Text #2
ID : 5
Format : UTF-8
Codec ID : S_TEXT/UTF8
Codec ID/Info : UTF-8 Plain Text
Duration : 1 h 17 min
Bit rate : 65 b/s
Count of elements : 1105
Stream size : 37.2 KiB (0%)
Language : English
Default : No
Forced : No

Menu
00:00:00.000 : 00:00:00.000
00:08:07.362 : 00:08:07.362
00:16:22.565 : 00:16:22.565
00:23:55.517 : 00:23:55.517
00:33:01.521 : 00:33:01.521
00:41:45.128 : 00:41:45.128
00:48:10.763 : 00:48:10.763
00:56:05.153 : 00:56:05.153
01:05:40.854 : 01:05:40.854
01:14:29.674 : 01:14:29.674
x264 [info]: frame I:624 Avg QP:23.81 size: 69482
x264 [info]: frame P:17167 Avg QP:25.30 size: 36321
x264 [info]: frame B:97991 Avg QP:26.83 size: 19366
x264 [info]: consecutive B-frames: 0.8% 0.5% 1.2% 6.7% 8.4% 27.5% 12.3% 9.8% 8.5% 7.0% 5.0% 3.4% 3.1% 3.0% 1.4% 0.7% 0.8%
x264 [info]: mb I I16..4: 2.2% 89.9% 8.0%
x264 [info]: mb P I16..4: 0.1% 12.4% 0.5% P16..4: 30.1% 36.6% 16.7% 1.4% 0.0% skip: 2.2%
x264 [info]: mb B I16..4: 0.0% 2.1% 0.0% B16..8: 45.1% 20.0% 6.5% direct: 7.6% skip:18.6% L0:50.5% L1:43.6% BI: 5.9%
x264 [info]: 8x8 transform intra:96.1% inter:58.4%
x264 [info]: coded y,uvDC,uvAC intra: 98.5% 0.0% 0.0% inter: 46.6% 0.0% 0.0%
x264 [info]: i16 v,h,dc,p: 36% 25% 18% 21%
x264 [info]: i8 v,h,dc,ddl,ddr,vr,hd,vl,hu: 6% 5% 12% 12% 15% 13% 13% 11% 12%
x264 [info]: i4 v,h,dc,ddl,ddr,vr,hd,vl,hu: 9% 5% 3% 9% 17% 17% 15% 12% 12%
x264 [info]: i8c dc,h,v,p: 98% 2% 0% 0%
x264 [info]: Weighted P-Frames: Y:24.2% UV:0.0%
x264 [info]: ref P L0: 33.8% 10.4% 17.4% 8.4% 7.1% 5.5% 5.2% 2.7% 2.7% 2.2% 2.3% 2.0% 0.4% 0.0%
x264 [info]: ref B L0: 50.7% 15.1% 10.3% 5.9% 4.8% 4.1% 3.5% 2.2% 2.0% 1.1% 0.3%
x264 [info]: ref B L1: 88.8% 11.2%
x264 [info]: kb/s:4248.53

encoded 115782 frames, 17.92 fps, 4248.53 kb/s

скриншот  скриншот  скриншот  
pb.wtf



Скачать Убийство по контракту через торрент https://i115.fastpic.ru/big/2021/0717/3f/56727937062aed07be3577264e5b853f.jpg Скачать, смотреть онлайн Убийство по контракту бесплантно в хорошем качестве Описание: Приехавшему в Лос-Анджелес киллеру дается задание убить женщину, находящуюся в хорошо охраняемом полицией доме. В фильме необычно ... 5 10 1
Торрент: Зарегистрирован [2021-07-18 05:15] · скачан: 2 раз
Статус: √ проверено
Размер: 2.61 GB
Как cкачать? Как скачать Убийство по контракту через торрент | UTorrent

28-11-2019 20:33  

Отключить всю рекламу на сайте

    Дорогой пользователь! Огромная просьба, поблагодарите релизера, оцените раздачу и оставьте свои комментарий, если Вы скачали Убийство по контракту через торрент бесплатно!
    Комментировать посты могут только пользователи прошедшие не сложную регистрацию
    Показать сообщения:    

    Убийство по контракту через торрент
    Скачать бесплатно Убийство по контракту
    Убийство по контракту скачать торрент
    Убийство по контракту смотреть онлайн
    Cкачать фильм Убийство по контракту бесплатно
    Убийство по контракту скачать торрент в хорошем качестве
    Убийство по контракту смотреть онлайн бесплатно в хорошем качестве


    Вы не можете начинать темы
    Вы не можете отвечать на сообщения
    Вы не можете редактировать свои сообщения
    Вы не можете удалять свои сообщения
    Вы не можете голосовать в опросах
    Вы не можете прикреплять файлы к сообщениям
    Вы можете скачивать файлы