1 сезон

3 сезон

iTunes

1

Line

MVO

iTunes

13

1 сезон

RePack

30

Deluxe

pack

Лицензия

ВАЖНО

ИГРА 18+

pack

RePack

MK11

RePack

jed

RePack

fifa19

RePack

RDR2

RePack

NEED FOR SPEED™ PAYBACK

4 сезон

9 сезон

Бесстыжие 9 сезон

Все сериалы

все сериалы на PB.wtf

RePack

FAR CRY 5

Anonymous, добрый вечер, мы катастрофически не успеваем собрать деньги на оплату серверов, помогите нам пожалуйста 5,10,15р., для нас важна любая помощь . В качестве благодарности мы отключим Вам всю рекламу на сайте (укажите свой ник в строку Ваше имя)!

×
  
Magnet ссылка

Толмен. Первый демон / Толмен. Демон леса / The Toll (Майкл Нэйдер) [2019, Ужасы, HDRip-AVC] DUB [iTunes] от MediaBit pb.wtf

Толмен. Первый демон через торрент pb.wtf

Раздают: 16 [ 65 KB/s ]
Размер: 1.45 GB | Добавлен: 11 д. назад | Торрент скачан:178 раз
Скачать  

18-07-2021 06:35 Толмен. Первый демон Скачать торрент  


Толмен. Первый демон / Толмен. Демон леса / The Toll
Информация о фильме:
Название: Толмен. Первый демон / Толмен. Демон леса
Оригинальное название: The Toll
Год выхода: 2019
Жанр: Ужасы
Режиссер: Майкл Нэйдер

В ролях: Джордан Хэйес, Макс Топплин, Джеймс Макгоун, Розмари Дансмор, Томас Л. Колфорд, Шэрон МакФарлэйн, Яна Пек, Джесс Браун, Шон Грегори Салливан, Энтони Юлк

Описание: Кэми направляется в гости к отцу и, устав после изнурительного перелёта, вызывает такси. Водитель сразу кажется ей подозрительным и неприятным, а когда он сворачивает на лесную дорогу, тревога девушки только усиливается. Внезапно машина глохнет. Думая, что таксист всё это подстроил, Кэми решает вернуться на привычный маршрут пешком, но не тут-то было. Каким-то образом она приходит к машине с другой стороны, и теперь им с перепуганным таксистом кажется, что за ними кто-то следит.



Страна: Канада
Студия: 4 AM Films, Always Hungry Productions
Продолжительность: 01:20:52
Перевод: Дублированный - iTunes



Информация о файле:
Кодек: AVC
Формат: MKV
Качество: HDRip-AVC
Видео: MPEG-4 AVC, 1024x430, 23.976 fps, 1736 kbps
Аудио RU: AC3, 6 ch, 48 kHz, 384 kbps
Аудио EN: AC3, 6 ch, 48 kHz, 448 kbps
Субтитры: Английские
Навигация по главам: Да

x264 info: frame I:767 Avg QP:12.86 size: 46248
x264 info: frame P:21344 Avg QP:16.51 size: 18060
x264 info: frame B:94217 Avg QP:19.11 size: 6683
x264 info: consecutive B-frames: 1.7% 1.6% 4.4% 7.2% 10.4% 42.8% 10.7% 8.6% 9.7% 1.3% 1.5%
General
Unique ID : 33981968333310357810904051204070074753 (0x1990B064CF49402D8A45324592E46981)
Complete name : D:uTorrentРипы wolf1245The.Toll.2019.DUB.HDRip-AVC.[wolf1245.MediaBit].mkv
Format : Matroska
Format version : Version 4
File size : 1.45 GiB
Duration : 1 h 20 min
Overall bit rate : 2 566 kb/s
Movie name : The.Toll.2019.DUB.HDRip-AVC.[wolf1245.MediaBit]
Encoded date : UTC 2021-07-18 06:21:09
Writing application : mkvmerge v59.0.0 ('Shining Star') 64-bit
Writing library : libebml v1.4.2 + libmatroska v1.6.4
Video
ID : 1
Format : AVC
Format/Info : Advanced Video Codec
Format profile : High@L4.1
Format settings : CABAC / 14 Ref Frames
Format settings, CABAC : Yes
Format settings, Reference frames : 14 frames
Codec ID : V_MPEG4/ISO/AVC
Duration : 1 h 20 min
Bit rate : 1 736 kb/s
Width : 1 024 pixels
Height : 430 pixels
Display aspect ratio : 2.40:1
Frame rate mode : Constant
Frame rate : 23.976 (24000/1001) FPS
Color space : YUV
Chroma subsampling : 4:2:0
Bit depth : 8 bits
Scan type : Progressive
Bits/(Pixel*Frame) : 0.164
Stream size : 1 002 MiB (68%)
Title : .[wolf1245.MediaBit]
Writing library : x264 core 157 r2958 57baac4
Encoding settings : cabac=1 / ref=14 / deblock=1:-3:-3 / analyse=0x3:0x133 / me=umh / subme=11 / psy=1 / psy_rd=1.00:0.05 / mixed_ref=1 / me_range=48 / chroma_me=1 / trellis=2 / 8x8dct=1 / cqm=0 / deadzone=21,11 / fast_pskip=1 / chroma_qp_offset=-3 / threads=10 / lookahead_threads=2 / sliced_threads=0 / nr=0 / decimate=1 / interlaced=0 / bluray_compat=0 / constrained_intra=0 / bframes=10 / b_pyramid=2 / b_adapt=2 / b_bias=0 / direct=3 / weightb=1 / open_gop=0 / weightp=2 / keyint=240 / keyint_min=24 / scenecut=40 / intra_refresh=0 / rc_lookahead=60 / rc=2pass / mbtree=1 / bitrate=1736 / ratetol=1.0 / qcomp=0.60 / qpmin=0 / qpmax=69 / qpstep=4 / cplxblur=20.0 / qblur=0.5 / vbv_maxrate=50000 / vbv_bufsize=62500 / nal_hrd=none / filler=0 / ip_ratio=1.40 / aq=3:0.80
Language : English
Default : Yes
Forced : No
Audio #1
ID : 2
Format : AC-3
Format/Info : Audio Coding 3
Commercial name : Dolby Digital
Codec ID : A_AC3
Duration : 1 h 20 min
Bit rate mode : Constant
Bit rate : 384 kb/s
Channel(s) : 6 channels
Channel layout : L R C LFE Ls Rs
Sampling rate : 48.0 kHz
Frame rate : 31.250 FPS (1536 SPF)
Bit depth : 16 bits
Compression mode : Lossy
Stream size : 222 MiB (15%)
Title : DUB | iTunes
Language : Russian
Service kind : Complete Main
Default : Yes
Forced : No
Audio #2
ID : 3
Format : AC-3
Format/Info : Audio Coding 3
Commercial name : Dolby Digital
Codec ID : A_AC3
Duration : 1 h 20 min
Bit rate mode : Constant
Bit rate : 448 kb/s
Channel(s) : 6 channels
Channel layout : L R C LFE Ls Rs
Sampling rate : 48.0 kHz
Frame rate : 31.250 FPS (1536 SPF)
Bit depth : 16 bits
Compression mode : Lossy
Stream size : 259 MiB (17%)
Title : Original
Language : English
Service kind : Complete Main
Default : No
Forced : No
Text
ID : 4
Format : UTF-8
Codec ID : S_TEXT/UTF8
Codec ID/Info : UTF-8 Plain Text
Duration : 1 h 14 min
Bit rate : 46 b/s
Count of elements : 937
Stream size : 25.3 KiB (0%)
Language : English
Default : No
Forced : No
Menu
00:00:00.000 : :Chapter 01
00:04:13.545 : :Chapter 02
00:07:35.372 : :Chapter 03
00:12:34.545 : :Chapter 04
00:17:01.604 : :Chapter 05
00:20:47.788 : :Chapter 06
00:26:08.901 : :Chapter 07
00:29:02.908 : :Chapter 08
00:36:34.651 : :Chapter 09
00:41:29.237 : :Chapter 10
00:44:46.183 : :Chapter 11
00:49:15.244 : :Chapter 12
00:54:55.292 : :Chapter 13
01:00:15.612 : :Chapter 14
01:05:43.940 : :Chapter 15
01:13:30.531 : :Chapter 16
Релиз от: &
Автор релиза:
pb.wtf



Скачать Толмен. Первый демон через торрент https://i115.fastpic.ru/big/2021/0718/da/4faf1e04b7956e92158a3dd41f27fcda.jpg Скачать фильм Толмен. Первый демон через торрент бесплантно в хорошем качестве Описание: Кэми направляется в гости к отцу и, устав после изнурительного перелёта, вызывает такси. Водитель сразу кажется ей ... 8.9 10 7
Торрент: Зарегистрирован [2021-07-18 06:35] · скачан: 178 раз
Статус: √ проверено
Размер: 1.45 GB
Как cкачать? Как скачать Толмен. Первый демон через торрент | UTorrent

28-11-2019 20:33  

Отключить всю рекламу на сайте

    Дорогой пользователь! Огромная просьба, поблагодарите релизера, оцените раздачу и оставьте свои комментарий, если Вы скачали Толмен. Первый демон через торрент бесплатно! Внесите свою лепту в развитие PiratBit!
    Комментировать посты могут только пользователи прошедшие не сложную регистрацию
    Показать сообщения:    

    Толмен. Первый демон через торрент
    Скачать бесплатно Толмен. Первый демон
    Толмен. Первый демон скачать торрент
    Толмен. Первый демон смотреть онлайн
    Cкачать фильм Толмен. Первый демон бесплатно
    Толмен. Первый демон скачать торрент в хорошем качестве
    Толмен. Первый демон смотреть онлайн бесплатно в хорошем качестве


    Вы не можете начинать темы
    Вы не можете отвечать на сообщения
    Вы не можете редактировать свои сообщения
    Вы не можете удалять свои сообщения
    Вы не можете голосовать в опросах
    Вы не можете прикреплять файлы к сообщениям
    Вы можете скачивать файлы