1 сезон

3 сезон

iTunes

1

Line

MVO

iTunes

13

1 сезон

RePack

30

Deluxe

pack

Лицензия

ВАЖНО

ИГРА 18+

pack

RePack

MK11

RePack

jed

RePack

fifa19

RePack

RDR2

RePack

NEED FOR SPEED™ PAYBACK

4 сезон

9 сезон

Бесстыжие 9 сезон

Все сериалы

все сериалы на PB.wtf

RePack

FAR CRY 5

Anonymous, добрый день, мы катастрофически не успеваем собрать деньги на оплату серверов, помогите нам пожалуйста 5,10,15р., для нас важна любая помощь . В качестве благодарности мы отключим Вам всю рекламу на сайте (укажите свой ник в строку Ваше имя)!

×
  
Magnet ссылка

Константин: Повелитель тьмы / Constantine (Френсис Лоуренс) [2005, ужасы, фэнтези, боевик, детектив, HD-DVDRip-HEVC 1080p] 2xDUB + MVO + 2хDVO + 7xAVO pb.wtf

Константин: Повелитель тьмы через торрент pb.wtf

Раздают: 7 [ 13 KB/s ]
Размер: 13.7 GB | Добавлен: 11 д. назад | Торрент скачан:62 раза
Скачать  

18-07-2021 07:36 Константин: Повелитель тьмы Скачать торрент  

Название: Константин: Повелитель тьмы
Оригинальное название: Constantine
Год производства: 2005
Жанр: ужасы, фэнтези, боевик, детектив
Режиссер: Френсис Лоуренс
В ролях: Киану Ривз, Рэйчел Вайс, Шайа ЛаБаф, Джимон Хонсу, Макс Бейкер, Прюитт Тэйлор Винс, Гэвин Россдэйл, Тильда Суинтон, Петер Стормаре, Джесси Рамирес

О фильме: Джону Константину удалось не только побывать в аду, но и вернуться обратно. Родившись с неугодным самому себе талантом — способностью распознавать помесь ангелов и демонов, которые бродят по земле в облике людей, — Константин под давлением обстоятельств пытается совершить самоубийство, лишь бы избавиться от мучительных видений. Но неудачно. Воскрешенный против собственной воли он снова оказывается в мире живых. Теперь, отмеченный печатью суицида и получивший временное право на жизнь, он патрулирует границу, разделяющую рай и ад, тщетно надеясь на обретение спасения путём сражения с земными ставленниками зла.



Страна: США, Германия
Студия: 3 Art Entertainment, Batfilm Productions, DC Comics, Di Bonaventura Pictures
Продолжительность: 02:01:05
Перевод: дублированный, многоголосый профессиональный, двухголосый профессиональный, авторский

Качество: HD-DVDRip-HEVC 1080p
Кодек: HEVC (x265)
Видео: 1920x794 (2.40:1), 7720 Кбит/сек, HEVC (Main10@L.4.1@High) 10 бит
Звук:
Аудио1: AC3, 6 ch, 640 Kbps - Русский, Дублированный (Мосфильм-Мастер / Blu-Ray)
Аудио2: AC3, 6 ch, 640 Kbps - Русский, Дублированный (Мосфильм-Мастер / Kinoton - custom)
Аудио3: AC3, 6 ch, 640 Kbps - Русский, Многоголосый (Супербит)
Аудио4: AC3, 6 ch, 640 Kbps - Русский, Двухголосый (Tycoon Studio)
Аудио5: AC3, 6 ch, 640 Kbps - Русский, Двухголосый (Temper Crew)
Аудио6: AC3, 6 ch, 640 Kbps - Русский, Авторский (Юрий Немахов)
Аудио7: AC3, 6 ch, 640 Kbps - Русский, Авторский (Андрей Гаврилов)
Аудио8: AC3, 6 ch, 640 Kbps - Русский, Авторский (Владимир Королев)
Аудио9: AC3, 6 ch, 640 Kbps - Русский, Авторский (Антон Карповский)
Аудио10: AC3, 6 ch, 640 Kbps - Русский, Авторский (Евгений Гаевский / Поздний)
Аудио11: AC3, 6 ch, 640 Kbps - Русский, Авторский (Евгений Гаевский / Ранний)
Аудио12: AC3, 6 ch, 640 Kbps - Русский, Авторский (Алексей Матвеев / Doctor Joker)
Аудио13: AC3, 2 ch, 192 Kbps - Украинский, Многоголосый (Студія "ТВ+" / т/к "ICTV")
Аудио14: AC3, 6 ch, 640 Kbps - English, Original
Субтитры: Русские форсированные и полные (SRT), English full (SRT, SDH, SDH - Colored)
Навигация по главам: Есть

x265 [info]: frame I: 734, Avg QP:17.59 kb/s: 22287.11
x265 [info]: frame P: 31063, Avg QP:19.00 kb/s: 16732.25
x265 [info]: frame B: 141964, Avg QP:21.01 kb/s: 5671.17
x265 [info]: Weighted P-Frames: Y:7.4% UV:5.7%
x265 [info]: Weighted B-Frames: Y:7.7% UV:4.5%
x265 [info]: consecutive B-frames: 4.0% 2.9% 5.0% 25.3% 9.5% 28.0% 5.7% 16.3% 2.0% 0.4% 0.1% 0.2% 0.3% 0.4%
x265 [info]: encoded 173761 frames in 143591.48s (1.21 fps), 7718.73 kb/s, Avg QP:20.64
Общее
Уникальный идентификатор : 93351679424289735512320066925789377062 (0x463AE1255A4DDA721D69CE8E0E66F226)
Полное имя : \\.\Константин.Повелитель.тьмы.Constantine.2005.HDDVDRip-HEVC.1080p.mkv
Формат : Matroska
Версия формата : Version 4
Размер файла : 13,7 Гбайт
Продолжительность : 2 ч. 1 м.
Общий поток : 16,2 Мбит/сек
Название фильма : Константин.Повелитель.тьмы.Constantine.2005.HDDVDRip-HEVC.1080p
Дата кодирования : UTC 2021-07-18 06:38:01
Программа кодирования : mkvmerge v58.0.0 ('Supper's Ready') 64-bit
Библиотека кодирования : libebml v1.4.2 + libmatroska v1.6.4

Видео
Идентификатор : 1
Формат : HEVC
Формат/Информация : High Efficiency Video Coding
Профиль формата : Main 10@L4.1@High
Идентификатор кодека : V_MPEGH/ISO/HEVC
Продолжительность : 2 ч. 0 м.
Битрейт : 7 720 Кбит/сек
Ширина : 1 920 пикселей
Высота : 794 пикселя
Соотношение сторон : 2,40:1
Режим частоты кадров : Постоянный
Частота кадров : 23,976 (24000/1001) кадра/сек
Цветовое пространство : YUV
Субдискретизация насыщенности : 4:2:0
Битовая глубина : 10 бит
Бит/(Пиксели*Кадры) : 0.211
Размер потока : 6,51 Гбайт (48%)
Заголовок : Constantine / Rip by OldGamer
Библиотека кодирования : x265 3.5+9-bf91444e0:[Windows][GCC 10.2.1][64 bit] 10bit
Настройки программы : cpuid=1111039 / frame-threads=3 / numa-pools=8 / wpp / no-pmode / no-pme / no-psnr / no-ssim / log-level=2 / input-csp=1 / input-res=1920x794 / interlace=0 / total-frames=173761 / level-idc=41 / high-tier=1 / uhd-bd=0 / ref=5 / no-allow-non-conformance / no-repeat-headers / annexb / no-aud / no-eob / no-eos / no-hrd / info / hash=0 / no-temporal-layers / open-gop / min-keyint=23 / keyint=240 / gop-lookahead=0 / bframes=13 / b-adapt=2 / b-pyramid / bframe-bias=0 / rc-lookahead=40 / lookahead-slices=0 / scenecut=40 / hist-scenecut=0 / radl=0 / no-splice / no-intra-refresh / ctu=32 / min-cu-size=8 / rect / amp / max-tu-size=32 / tu-inter-depth=4 / tu-intra-depth=4 / limit-tu=1 / rdoq-level=2 / dynamic-rd=0.00 / no-ssim-rd / signhide / no-tskip / nr-intra=0 / nr-inter=0 / no-constrained-intra / no-strong-intra-smoothing / max-merge=5 / limit-refs=3 / no-limit-modes / me=3 / subme=7 / merange=57 / temporal-mvp / no-frame-dup / no-hme / weightp / weightb / no-analyze-src-pics / deblock=-3:-3 / no-sao / no-sao-non-deblock / rd=6 / selective-sao=0 / no-early-skip / rskip / no-fast-intra / no-tskip-fast / no-cu-lossless / b-intra / no-splitrd-skip / rdpenalty=0 / psy-rd=2.00 / psy-rdoq=1.00 / no-rd-refine / no-lossless / cbqpoffs=0 / crqpoffs=0 / rc=crf / crf=20.0 / qcomp=0.60 / qpstep=4 / stats-write=0 / stats-read=0 / vbv-maxrate=50000 / vbv-bufsize=50000 / vbv-init=0.9 / min-vbv-fullness=50.0 / max-vbv-fullness=80.0 / crf-max=0.0 / crf-min=0.0 / ipratio=1.40 / pbratio=1.30 / aq-mode=3 / aq-strength=1.00 / no-cutree / zone-count=1 / zones: / start-frame=163799 / end-frame=173761 / qp=36 / no-strict-cbr / qg-size=32 / no-rc-grain / qpmax=69 / qpmin=0 / no-const-vbv / sar=1 / overscan=0 / videoformat=5 / range=0 / colorprim=2 / transfer=2 / colormatrix=2 / chromaloc=0 / display-window=0 / cll=0,0 / min-luma=0 / max-luma=1023 / log2-max-poc-lsb=8 / vui-timing-info / vui-hrd-info / slices=1 / no-opt-qp-pps / no-opt-ref-list-length-pps / no-multi-pass-opt-rps / scenecut-bias=0.00 / hist-threshold=0.03 / no-opt-cu-delta-qp / no-aq-motion / no-hdr10 / no-hdr10-opt / no-dhdr10-opt / no-idr-recovery-sei / analysis-reuse-level=0 / analysis-save-reuse-level=0 / analysis-load-reuse-level=0 / scale-factor=0 / refine-intra=0 / refine-inter=0 / refine-mv=1 / refine-ctu-distortion=0 / no-limit-sao / ctu-info=0 / no-lowpass-dct / refine-analysis-type=0 / copy-pic=1 / max-ausize-factor=1.0 / no-dynamic-refine / no-single-sei / no-hevc-aq / no-svt / no-field / qp-adaptation-range=1.00 / scenecut-aware-qp=0conformance-window-offsets / right=0 / bottom=0 / decoder-max-rate=0 / no-vbv-live-multi-pass
Язык : English
Default : Да
Forced : Нет

Аудио #1
Идентификатор : 2
Формат : AC-3
Формат/Информация : Audio Coding 3
Коммерческое название : Dolby Digital
Идентификатор кодека : A_AC3
Продолжительность : 2 ч. 0 м.
Вид битрейта : Постоянный
Битрейт : 640 Кбит/сек
Каналы : 6 каналов
Channel layout : L R C LFE Ls Rs
Частота : 48,0 КГц
Частота кадров : 31,250 кадров/сек (1536 SPF)
Метод сжатия : С потерями
Размер потока : 553 Мбайт (4%)
Заголовок : Dub (Мосфильм-Мастер / Blu-Ray)
Язык : Russian
Service kind : Complete Main
Default : Да
Forced : Нет

Аудио #2
Идентификатор : 3
Формат : AC-3
Формат/Информация : Audio Coding 3
Коммерческое название : Dolby Digital
Идентификатор кодека : A_AC3
Продолжительность : 2 ч. 0 м.
Вид битрейта : Постоянный
Битрейт : 640 Кбит/сек
Каналы : 6 каналов
Channel layout : L R C LFE Ls Rs
Частота : 48,0 КГц
Частота кадров : 31,250 кадров/сек (1536 SPF)
Метод сжатия : С потерями
Размер потока : 553 Мбайт (4%)
Заголовок : Dub (Мосфильм-Мастер / Kinoton - custom)
Язык : Russian
Service kind : Complete Main
Default : Нет
Forced : Нет

Аудио #3
Идентификатор : 4
Формат : AC-3
Формат/Информация : Audio Coding 3
Коммерческое название : Dolby Digital
Идентификатор кодека : A_AC3
Продолжительность : 2 ч. 0 м.
Вид битрейта : Постоянный
Битрейт : 640 Кбит/сек
Каналы : 6 каналов
Channel layout : L R C LFE Ls Rs
Частота : 48,0 КГц
Частота кадров : 31,250 кадров/сек (1536 SPF)
Метод сжатия : С потерями
Размер потока : 553 Мбайт (4%)
Заголовок : MVO (Супербит)
Язык : Russian
Service kind : Complete Main
Default : Нет
Forced : Нет

Аудио #4
Идентификатор : 5
Формат : AC-3
Формат/Информация : Audio Coding 3
Коммерческое название : Dolby Digital
Идентификатор кодека : A_AC3
Продолжительность : 2 ч. 0 м.
Вид битрейта : Постоянный
Битрейт : 640 Кбит/сек
Каналы : 6 каналов
Channel layout : L R C LFE Ls Rs
Частота : 48,0 КГц
Частота кадров : 31,250 кадров/сек (1536 SPF)
Метод сжатия : С потерями
Размер потока : 553 Мбайт (4%)
Заголовок : DVO (Tycoon Studio)
Язык : Russian
Service kind : Complete Main
Default : Нет
Forced : Нет

Аудио #5
Идентификатор : 6
Формат : AC-3
Формат/Информация : Audio Coding 3
Коммерческое название : Dolby Digital
Идентификатор кодека : A_AC3
Продолжительность : 2 ч. 0 м.
Вид битрейта : Постоянный
Битрейт : 640 Кбит/сек
Каналы : 6 каналов
Channel layout : L R C LFE Ls Rs
Частота : 48,0 КГц
Частота кадров : 31,250 кадров/сек (1536 SPF)
Метод сжатия : С потерями
Размер потока : 553 Мбайт (4%)
Заголовок : DVO (Temper Crew)
Язык : Russian
Service kind : Complete Main
Default : Нет
Forced : Нет

Аудио #6
Идентификатор : 7
Формат : AC-3
Формат/Информация : Audio Coding 3
Коммерческое название : Dolby Digital
Идентификатор кодека : A_AC3
Продолжительность : 2 ч. 0 м.
Вид битрейта : Постоянный
Битрейт : 640 Кбит/сек
Каналы : 6 каналов
Channel layout : L R C LFE Ls Rs
Частота : 48,0 КГц
Частота кадров : 31,250 кадров/сек (1536 SPF)
Метод сжатия : С потерями
Размер потока : 553 Мбайт (4%)
Заголовок : AVO (Юрий Немахов)
Язык : Russian
Service kind : Complete Main
Default : Нет
Forced : Нет

Аудио #7
Идентификатор : 8
Формат : AC-3
Формат/Информация : Audio Coding 3
Коммерческое название : Dolby Digital
Идентификатор кодека : A_AC3
Продолжительность : 2 ч. 0 м.
Вид битрейта : Постоянный
Битрейт : 640 Кбит/сек
Каналы : 6 каналов
Channel layout : L R C LFE Ls Rs
Частота : 48,0 КГц
Частота кадров : 31,250 кадров/сек (1536 SPF)
Метод сжатия : С потерями
Размер потока : 553 Мбайт (4%)
Заголовок : AVO (Андрей Гаврилов)
Язык : Russian
Service kind : Complete Main
Default : Нет
Forced : Нет

Аудио #8
Идентификатор : 9
Формат : AC-3
Формат/Информация : Audio Coding 3
Коммерческое название : Dolby Digital
Идентификатор кодека : A_AC3
Продолжительность : 2 ч. 0 м.
Вид битрейта : Постоянный
Битрейт : 640 Кбит/сек
Каналы : 6 каналов
Channel layout : L R C LFE Ls Rs
Частота : 48,0 КГц
Частота кадров : 31,250 кадров/сек (1536 SPF)
Метод сжатия : С потерями
Размер потока : 553 Мбайт (4%)
Заголовок : AVO (Владимир Королев)
Язык : Russian
Service kind : Complete Main
Default : Нет
Forced : Нет

Аудио #9
Идентификатор : 10
Формат : AC-3
Формат/Информация : Audio Coding 3
Коммерческое название : Dolby Digital
Идентификатор кодека : A_AC3
Продолжительность : 2 ч. 0 м.
Вид битрейта : Постоянный
Битрейт : 640 Кбит/сек
Каналы : 6 каналов
Channel layout : L R C LFE Ls Rs
Частота : 48,0 КГц
Частота кадров : 31,250 кадров/сек (1536 SPF)
Метод сжатия : С потерями
Размер потока : 553 Мбайт (4%)
Заголовок : AVO (Антон Карповский)
Язык : Russian
Service kind : Complete Main
Default : Нет
Forced : Нет

Аудио #10
Идентификатор : 11
Формат : AC-3
Формат/Информация : Audio Coding 3
Коммерческое название : Dolby Digital
Идентификатор кодека : A_AC3
Продолжительность : 2 ч. 0 м.
Вид битрейта : Постоянный
Битрейт : 640 Кбит/сек
Каналы : 6 каналов
Channel layout : L R C LFE Ls Rs
Частота : 48,0 КГц
Частота кадров : 31,250 кадров/сек (1536 SPF)
Метод сжатия : С потерями
Размер потока : 553 Мбайт (4%)
Заголовок : AVO (Евгений Гаевский / Поздний)
Язык : Russian
Service kind : Complete Main
Default : Нет
Forced : Нет

Аудио #11
Идентификатор : 12
Формат : AC-3
Формат/Информация : Audio Coding 3
Коммерческое название : Dolby Digital
Идентификатор кодека : A_AC3
Продолжительность : 2 ч. 0 м.
Вид битрейта : Постоянный
Битрейт : 640 Кбит/сек
Каналы : 6 каналов
Channel layout : L R C LFE Ls Rs
Частота : 48,0 КГц
Частота кадров : 31,250 кадров/сек (1536 SPF)
Метод сжатия : С потерями
Размер потока : 553 Мбайт (4%)
Заголовок : AVO (Евгений Гаевский / Ранний)
Язык : Russian
Service kind : Complete Main
Default : Нет
Forced : Нет

Аудио #12
Идентификатор : 13
Формат : AC-3
Формат/Информация : Audio Coding 3
Коммерческое название : Dolby Digital
Идентификатор кодека : A_AC3
Продолжительность : 2 ч. 0 м.
Вид битрейта : Постоянный
Битрейт : 640 Кбит/сек
Каналы : 6 каналов
Channel layout : L R C LFE Ls Rs
Частота : 48,0 КГц
Частота кадров : 31,250 кадров/сек (1536 SPF)
Метод сжатия : С потерями
Размер потока : 553 Мбайт (4%)
Заголовок : AVO (Алексей Матвеев / Doctor Joker)
Язык : Russian
Service kind : Complete Main
Default : Нет
Forced : Нет

Аудио #13
Идентификатор : 14
Формат : AC-3
Формат/Информация : Audio Coding 3
Коммерческое название : Dolby Digital
Идентификатор кодека : A_AC3
Продолжительность : 2 ч. 0 м.
Вид битрейта : Постоянный
Битрейт : 192 Кбит/сек
Каналы : 2 канала
Channel layout : L R
Частота : 48,0 КГц
Частота кадров : 31,250 кадров/сек (1536 SPF)
Метод сжатия : С потерями
Размер потока : 166 Мбайт (1%)
Заголовок : MVO - Студія "ТВ+" / т/к "ICTV" | AC3 2.0 @ 192 kbps
Язык : Ukrainian
Service kind : Complete Main
Default : Нет
Forced : Нет

Аудио #14
Идентификатор : 15
Формат : AC-3
Формат/Информация : Audio Coding 3
Коммерческое название : Dolby Digital
Идентификатор кодека : A_AC3
Продолжительность : 2 ч. 0 м.
Вид битрейта : Постоянный
Битрейт : 640 Кбит/сек
Каналы : 6 каналов
Channel layout : L R C LFE Ls Rs
Частота : 48,0 КГц
Частота кадров : 31,250 кадров/сек (1536 SPF)
Метод сжатия : С потерями
Размер потока : 553 Мбайт (4%)
Язык : English
Service kind : Complete Main
Default : Нет
Forced : Нет

Текст #1
Идентификатор : 16
Формат : UTF-8
Идентификатор кодека : S_TEXT/UTF8
Идентификатор кодека/Информация : UTF-8 Plain Text
Продолжительность : 1 ч. 59 м.
Битрейт : 1 бит/сек
Count of elements : 23
Размер потока : 975 байт (0%)
Заголовок : Forced
Язык : Russian
Default : Да
Forced : Нет

Текст #2
Идентификатор : 17
Формат : UTF-8
Идентификатор кодека : S_TEXT/UTF8
Идентификатор кодека/Информация : UTF-8 Plain Text
Продолжительность : 1 ч. 58 м.
Битрейт : 50 бит/сек
Count of elements : 986
Размер потока : 44,0 Кбайт (0%)
Заголовок : Full - DVD R5 / Subzero
Язык : Russian
Default : Нет
Forced : Нет

Текст #3
Идентификатор : 18
Формат : UTF-8
Идентификатор кодека : S_TEXT/UTF8
Идентификатор кодека/Информация : UTF-8 Plain Text
Продолжительность : 2 ч. 0 м.
Битрейт : 55 бит/сек
Count of elements : 818
Размер потока : 48,9 Кбайт (0%)
Заголовок : Full - Алексей Матвеев / Doctor Joker
Язык : Russian
Default : Нет
Forced : Нет

Текст #4
Идентификатор : 19
Формат : UTF-8
Идентификатор кодека : S_TEXT/UTF8
Идентификатор кодека/Информация : UTF-8 Plain Text
Продолжительность : 1 ч. 53 м.
Битрейт : 61 бит/сек
Count of elements : 952
Размер потока : 51,3 Кбайт (0%)
Заголовок : Full - Radagast
Язык : Russian
Default : Нет
Forced : Нет

Текст #5
Идентификатор : 20
Формат : UTF-8
Идентификатор кодека : S_TEXT/UTF8
Идентификатор кодека/Информация : UTF-8 Plain Text
Продолжительность : 1 ч. 59 м.
Битрейт : 54 бит/сек
Count of elements : 932
Размер потока : 47,8 Кбайт (0%)
Заголовок : Full - Тамерлан
Язык : Russian
Default : Нет
Forced : Нет

Текст #6
Идентификатор : 21
Формат : UTF-8
Идентификатор кодека : S_TEXT/UTF8
Идентификатор кодека/Информация : UTF-8 Plain Text
Продолжительность : 1 ч. 53 м.
Битрейт : 49 бит/сек
Count of elements : 991
Размер потока : 40,8 Кбайт (0%)
Заголовок : Full
Язык : Russian
Default : Нет
Forced : Нет

Текст #7
Идентификатор : 22
Формат : UTF-8
Идентификатор кодека : S_TEXT/UTF8
Идентификатор кодека/Информация : UTF-8 Plain Text
Продолжительность : 1 ч. 57 м.
Битрейт : 33 бит/сек
Count of elements : 937
Размер потока : 28,6 Кбайт (0%)
Заголовок : Full
Язык : English
Default : Нет
Forced : Нет

Текст #8
Идентификатор : 23
Формат : UTF-8
Идентификатор кодека : S_TEXT/UTF8
Идентификатор кодека/Информация : UTF-8 Plain Text
Продолжительность : 1 ч. 59 м.
Битрейт : 35 бит/сек
Count of elements : 1041
Размер потока : 30,8 Кбайт (0%)
Заголовок : SDH
Язык : English
Default : Нет
Forced : Нет

Текст #9
Идентификатор : 24
Формат : UTF-8
Идентификатор кодека : S_TEXT/UTF8
Идентификатор кодека/Информация : UTF-8 Plain Text
Продолжительность : 1 ч. 59 м.
Битрейт : 41 бит/сек
Count of elements : 1041
Размер потока : 36,4 Кбайт (0%)
Заголовок : SDH - Colored
Язык : English
Default : Нет
Forced : Нет

Меню
00:00:00.000 : The Spear of Destiny
00:02:48.168 : The Exorcism
00:06:43.403 : Demon in the Mirror
00:10:33.300 : Leap of Lost Faith
00:14:21.528 : Death in Their Paths
00:17:59.912 : Little Talks
00:20:31.397 : The Rules
00:24:31.470 : Message to Angela
00:27:22.641 : Personal Swarm
00:29:42.281 : Midnite and Balthazar
00:34:22.060 : Sounds Like a Theory
00:37:36.087 : Demonic Light Show
00:41:18.643 : To Hell and Back
00:46:49.974 : Hennessy to the Last Drop
00:50:29.359 : World Behind the World
00:53:33.878 : Things Left Behind
00:58:03.480 : Beeman Bedeviled
01:01:25.182 : No Turning Back
01:04:32.536 : Submerged
01:09:17.654 : Firepower for Protection
01:12:24.340 : Balthazar's Last Rites
01:16:06.229 : Blown and Blasted Away
01:18:30.539 : Electric Chair Visions
01:22:36.785 : Not Always Like in Books
01:25:50.813 : Holy Water Assult
01:29:52.054 : Devil Inside Her
01:34:05.973 : Gabriels Road to Salvation
01:37:07.989 : Bloodletting
01:39:59.160 : Satan
01:42:57.672 : Archangel and Devil
01:45:03.630 : Luciferocious Lease on Life
01:48:28.002 : Get Used To It
01:51:29.516 : Safekeeping
01:53:52.826 : End Credits
Релиз от: OldGamer pb.wtf



Скачать Константин: Повелитель тьмы через торрент https://b.radikal.ru/b02/2107/b2/2c9d753b019d.jpg Скачать фильм Константин: Повелитель тьмы через торрент бесплантно в хорошем качестве О фильме: Джону Константину удалось не только побывать в аду, но и вернуться обратно. Родившись с неугодным самому себе талантом — ... 10 10 9
Info! Золотая раздача, скачанное не засчитывается.
Торрент: Зарегистрирован [2021-07-18 07:36] · скачан: 62 раз
Статус: √ проверено
Размер: 13.7 GB
Как cкачать? Как скачать Константин: Повелитель тьмы через торрент | UTorrent

28-11-2019 20:33  

Отключить всю рекламу на сайте

    Дорогой пользователь! Огромная просьба, поблагодарите релизера, оцените раздачу и оставьте свои комментарий, если Вы скачали Константин: Повелитель тьмы через торрент бесплатно! Внесите свою лепту в развитие PiratBit!
    Комментировать посты могут только пользователи прошедшие не сложную регистрацию
    Показать сообщения:    

    Константин: Повелитель тьмы через торрент
    Скачать бесплатно Константин: Повелитель тьмы
    Константин: Повелитель тьмы скачать торрент
    Константин: Повелитель тьмы смотреть онлайн
    Cкачать фильм Константин: Повелитель тьмы бесплатно
    Константин: Повелитель тьмы скачать торрент в хорошем качестве
    Константин: Повелитель тьмы смотреть онлайн бесплатно в хорошем качестве


    Вы не можете начинать темы
    Вы не можете отвечать на сообщения
    Вы не можете редактировать свои сообщения
    Вы не можете удалять свои сообщения
    Вы не можете голосовать в опросах
    Вы не можете прикреплять файлы к сообщениям
    Вы можете скачивать файлы