Доктор Стрэндж

Лицензия

Добыча

Дубляж

Дом дракона

1 сезон

Тор

Дубляж

В эфире

Дубляж

Там, где раки поют

MVO

Властелин колец

1 сезон

GLOBAL

pack

Рекомендуем

30

Пиратка

ВАЖНО

ВАЖНО

Ghostwire

Пиратка

jed

RePack

nioh2

RePack

RDR2

RePack

NEED FOR SPEED™ PAYBACK

RePack

скачать торрент

Кинопоиск HD

Острые козырьки 6 сезон

6 сезон

FAR CRY 6

RePack

скачать торрент

Лицензия

скачать торрент

MVO

1

1 сезон

скачать торрент

1 сезон

скачать торрент

Лицензия

  

Был настоящим трубачом (Константин Бромберг) [1973 г., драма, семейный, детский, SATRip-AVC]

Был настоящим трубачом через торрент pb.wtf

Размер: 1.26 GB | Добавлен: 1 год 4 мес. назад | Торрент скачан:3 раза
Смотреть онлайн | Скачать   

20-07-2021 15:43 Был настоящим трубачом Скачать торрент  

Был настоящим трубачом

Год выпуска: 1973
Страна: СССР | ТО «Экран»
Жанр: драма, семейный, детский
Продолжительность: 01:06:20
Перевод: не требуется

Режиссер: Константин Бромберг

В ролях: Эвальдас Микалюнас, Валентин Никулин, Олег Корчиков, Олег Чайка, Андрей Вертоградов, Владимир Волчик, Николай Лукьянов, Сергей Дворецкий, Светлана Смехнова, Петр Вишневский

Описание: Фильм о жизни девятилетнего артиста-агитатора Коти Мгеброва-Чекана в годы гражданской войны, погибшего в 1922 году от руки контрреволюционера и похороненного в Петрограде на Марсовом поле рядом с героями революции.

rating

Файл
Формат: MKV
Кодек: x264
Качество: SATRip-AVC (DVB)
Видео: MPEG-4 AVC, [email protected], 25.000 fps, 2529 kbps, 0.250 bit/pixel
Аудио: Русский, AC3, 2 chnls, 192 kbps
x264 [info]: frame I:535 Avg QP:17.54 size: 49284
x264 [info]: frame P:23468 Avg QP:18.45 size: 26598
x264 [info]: frame B:75502 Avg QP:19.83 size: 8047
x264 [info]: consecutive B-frames: 2.5% 3.4% 9.3% 24.2% 24.5% 31.4% 3.6% 0.7% 0.2% 0.2% 0.0% 0.0% 0.0%
Format : Matroska
Format version : Version 4
File size : 1.26 GiB
Duration : 1 h 6 min
Overall bit rate mode : Variable
Overall bit rate : 2 723 kb/s
Movie name : Был настоящим трубачом (1973) - Rip by -{am}-
Encoded date : UTC 2021-07-20 01:22:14
Writing application : mkvmerge v7.2.0 ('On Every Street') 32bit built on Sep 13 2014 15:42:11
Writing library : libebml v1.3.0 + libmatroska v1.4.1
Attachments : poster.png

Video
ID : 1
Format : AVC
Format/Info : Advanced Video Codec
Format profile : [email protected]
Format settings : CABAC / 16 Ref Frames
Format settings, CABAC : Yes
Format settings, Reference : 16 frames
Codec ID : V_MPEG4/ISO/AVC
Duration : 1 h 6 min
Bit rate mode : Variable
Bit rate : 2 529 kb/s
Maximum bit rate : 62.5 Mb/s
Width : 712 pixels
Height : 568 pixels
Display aspect ratio : 4:3
Original display aspect rat : 4:3
Frame rate mode : Constant
Frame rate : 25.000 FPS
Color space : YUV
Chroma subsampling : 4:2:0
Bit depth : 8 bits
Scan type : Progressive
Bits/(Pixel*Frame) : 0.250
Stream size : 1.17 GiB (93%)
Title : Byl.nastoyashim.trubachom.1973.{am}.759.Rus
Writing library : x264 core 164 r3065+55M 280faca t_mod_New [(8 & 10)[email protected] X86_64]
Encoding settings : cabac=1 / ref=16 / deblock=1:-2:-3 / analyse=0x3:0x133 / me=umh / subme=11 / psy=1 / fade_compensate=0.00 / psy_rd=1.07:0.10 / mixed_ref=1 / me_range=48 / chroma_me=1 / trellis=2 / 8x8dct=1 / cqm=2 / deadzone=6,6 / fast_pskip=0 / chroma_qp_offset=-3 / threads=18 / lookahead_threads=4 / sliced_threads=0 / nr=0 / decimate=0 / interlaced=0 / bluray_compat=0 / constrained_intra=0 / fgo=0 / bframes=12 / b_pyramid=2 / b_adapt=2 / b_bias=0 / direct=3 / weightb=1 / open_gop=0 / weightp=2 / keyint=250 / keyint_min=25 / scenecut=40 / intra_refresh=0 / rc_lookahead=60 / rc=crf / mbtree=0 / crf=17.9000 / qcomp=0.60 / qpmin=0:0:0 / qpmax=30:30:30 / qpstep=4 / vbv_maxrate=62500 / vbv_bufsize=78125 / crf_max=0.0 / nal_hrd=vbr / filler=0 / ip_ratio=1.25 / pb_ratio=1.30 / aq=3:1.00 / aq-sensitivity=10.00 / aq-factor=1.00:1.00:1.00 / aq2=0 / aq3=0
Language : Russian
Default : Yes
Forced : No
Color range : Limited
Color primaries : BT.601 PAL
Transfer characteristics : BT.470 System B/G
Matrix coefficients : BT.470 System B/G

Audio
ID : 2
Format : AC-3
Format/Info : Audio Coding 3
Commercial name : Dolby Digital
Codec ID : A_AC3
Duration : 1 h 6 min
Bit rate mode : Constant
Bit rate : 192 kb/s
Channel(s) : 2 channels
Channel layout : L R
Sampling rate : 48.0 kHz
Frame rate : 31.250 FPS (1536 SPF)
Compression mode : Lossy
Stream size : 91.1 MiB (7%)
Title : Original
Language : Russian
Service kind : Complete Main
Default : Yes
Forced : No
скриншот  скриншот  скриншот  скриншот  

скриншот  скриншот  скриншот  скриншот  

скриншот  скриншот  скриншот  скриншот  



Скачать Был настоящим трубачом через торрент https://c.radikal.ru/c23/2107/13/0907cc44c1af.jpg Скачать, смотреть онлайн Был настоящим трубачом бесплантно в хорошем качестве Описание: Фильм о жизни девятилетнего артиста-агитатора Коти Мгеброва-Чекана в годы гражданской войны, погибшего в 1922 году от руки ... 10 10 1
Торрент: Зарегистрирован [2021-07-20 15:43] · скачан: 3 раз
Статус: √ проверено
Размер: 1.26 GB
Как cкачать? Как скачать Был настоящим трубачом через торрент | UTorrent

28-11-2019 20:33  


Отключить вcю реклaмy на сайте, в т.ч. и в плеере онлайн просмотра!

    Дорогой пользователь! Огромная просьба, поблагодарите релизера, оцените раздачу и оставьте свои комментарий, если Вы скачали Был настоящим трубачом через торрент бесплатно!!
    Комментировать посты могут только пользователи прошедшие не сложную регистрацию
    Показать сообщения:    


    Был настоящим трубачом через торрент
    Скачать бесплатно Был настоящим трубачом
    Был настоящим трубачом скачать торрент
    Был настоящим трубачом смотреть онлайн
    Cкачать фильм Был настоящим трубачом бесплатно
    Был настоящим трубачом скачать торрент в хорошем качестве
    Был настоящим трубачом смотреть онлайн бесплатно в хорошем качестве
    Вы не можете начинать темы
    Вы не можете отвечать на сообщения
    Вы не можете редактировать свои сообщения
    Вы не можете удалять свои сообщения
    Вы не можете голосовать в опросах
    Вы не можете прикреплять файлы к сообщениям
    Вы можете скачивать файлы
    Был настоящим трубачом [1973 г., драма, семейный, детский, SATRip-AVC] смотреть онлайн, скачать торрент picoco.icu