1 сезон

3 сезон

iTunes

1

Line

MVO

iTunes

13

1 сезон

RePack

30

Deluxe

pack

Лицензия

ВАЖНО

ИГРА 18+

pack

RePack

MK11

RePack

jed

RePack

fifa19

RePack

RDR2

RePack

NEED FOR SPEED™ PAYBACK

4 сезон

9 сезон

Бесстыжие 9 сезон

Все сериалы

все сериалы на PB.wtf

RePack

FAR CRY 5

Anonymous, добрый день, мы катастрофически не успеваем собрать деньги на оплату серверов, помогите нам пожалуйста 5,10,15р., для нас важна любая помощь . В качестве благодарности мы отключим Вам всю рекламу на сайте (укажите свой ник в строку Ваше имя)!

×
  
Magnet ссылка

Ага (Фархат Серкебаев) [2021, Боевик, триллер, WEBRip 1080p] pb.wtf

Ага через торрент pb.wtf

Раздают: 12 [ 229 KB/s ] Качают: 1 [ 0 KB/s ]
Размер: 3.04 GB | Добавлен: 8 д. назад | Торрент скачан:137 раз
Скачать  

21-07-2021 05:33 Ага Скачать торрент  

Ага
Год выпуска: 2021
Страна: Казахстан
Студия: Toraigyr Film
Жанр: Боевик, триллер
Продолжительность: 01:25:05
Перевод: Не требуется
Субтитры: отсутствуют

Режиссер: Фархат Серкебаев



В ролях: Мурат Бисенбин, Азамат Ибраев, Болат Абдильманов, Фархад Абдраимов, Александр Устюгов, Марйам Сатаева, Руслан Каирбаев, Нурсултан Мухаметжанов, Руслан Акылбаев, Руслан Ныгманов

Описание: Бахытжан Абдулаев — бывший меч трех Жузов — после громких дел в прошлом, перенеся утрату близких людей, оставляет криминальный путь. Уединившись в горах, он проживает жизнь отшельником. Однако, весть о жестоком убийстве родного племянника нарушает его спокойствие и идиллию. Баха узнает, что виновником является Сакен — сын местного олигарха Сансызбая, опасного и влиятельного человека, на которого не распространяются законы. Баха принимает решение выйти на тропу войны против самых могущественных и влиятельных кланов трех Жузов. Он готов пойти на все, чтобы восстановить справедливость. Возможно, даже заплатить ценой своей жизни.

Качество: WEBRip 1080p
Формат: MKV

Видео: 1920x800 (2.40:1), 24 fps, MPEG-4 AVC ~ 4925 Kbps avg, 0.134 bit/pixel
Аудио: AC3, 48 kHz, 2 ch, ~192.00 kbps avg | русский |
скриншот  скриншот  скриншот  скриншот  скриншот  

Общее
Уникальный идентификатор : 227382529236884803290417892960372885458 (0xAB10483D86271894147D147BF45187D2)
Полное имя : Aga.2021.1080p.WEBRip.DD.2.0.MegaPeer.mkv
Формат : Matroska
Версия формата : Version 4
Размер файла : 3,04 Гбайт
Продолжительность : 1 ч. 25 м.
Общий поток : 5 119 Кбит/сек
Название фильма : Ага (2021) от MegaPeer
Дата кодирования : UTC 2021-07-20 19:31:22
Программа кодирования : mkvmerge v59.0.0 ('Shining Star') 64-bit
Библиотека кодирования : libebml v1.4.2 + libmatroska v1.6.4 / Lavf58.12.100
Обложка : Yes
Attachments : cover.jpg

Видео
Идентификатор : 1
Формат : AVC
Формат/Информация : Advanced Video Codec
Профиль формата : Main@L4
Настройки формата : CABAC / 1 Ref Frames
Параметр CABAC формата : Да
Параметр RefFrames формата : 1 кадр
Параметр GOP формата : M=1, N=25
Идентификатор кодека : V_MPEG4/ISO/AVC
Продолжительность : 1 ч. 25 м.
Битрейт : 4 925 Кбит/сек
Ширина : 1 920 пикселей
Высота : 800 пикселей
Соотношение сторон : 2,40:1
Режим частоты кадров : Постоянный
Частота кадров : 24,000 кадра/сек
Цветовое пространство : YUV
Субдискретизация насыщенности : 4:2:0
Битовая глубина : 8 бит
Тип развёртки : Прогрессивная
Бит/(Пиксели*Кадры) : 0.134
Размер потока : 2,93 Гбайт (96%)
Язык : Russian
Default : Да
Forced : Нет

Аудио
Идентификатор : 2
Формат : AC-3
Формат/Информация : Audio Coding 3
Коммерческое название : Dolby Digital
Идентификатор кодека : A_AC3
Продолжительность : 1 ч. 25 м.
Вид битрейта : Постоянный
Битрейт : 192 Кбит/сек
Каналы : 2 канала
Channel layout : L R
Частота : 48,0 КГц
Частота кадров : 31,250 кадров/сек (1536 SPF)
Метод сжатия : С потерями
Задержка видео : -5 мс.
Размер потока : 117 Мбайт (4%)
Язык : Russian
Service kind : Complete Main
Default : Да
Forced : Нет

pb.wtf



Скачать Ага через торрент https://i115.fastpic.ru/big/2021/0720/c7/13b4ae9a4448986f40132a839dfa5cc7.jpg Скачать фильм Ага через торрент бесплантно в хорошем качестве Описание: Бахытжан Абдулаев — бывший меч трех Жузов — после громких дел в прошлом, перенеся утрату близких людей, оставляет криминальный ... 10 10 5
Торрент: Зарегистрирован [2021-07-21 05:33] · скачан: 137 раз
Статус: T временная
Размер: 3.04 GB
Как cкачать? Как скачать Ага через торрент | UTorrent

% Раздел Тема Автор DL S | L
Аниме [HD 720p, 1080p] [ 4.36 GB ] И дьявол может плакать / Devil May Cry[12 эпизодов] [2007 мультфильм аниме ... BDRip] DragonHard Скачать
1 | 0
Аниме [HD 720p, 1080p] [ 9.58 GB ] Последняя фантазия 13 / Final Fantasy XIII The Movie [2010 Сага HDRip] DragonHard Скачать
1 | 0
Фильмы [HD 720p, 1080p] (Хороший звук DUB, MVO) [ 4.38 GB ] Загадочная история Бенджамина Баттона / The Curious Case of Benjamin Button [2008 BDRip] [720p] Maks_zm Скачать
1 | 0
RTS (стратегии в реальном времени) [ 3.37 GB ] В тылу врага 2: Лис пустыни [лицензия RU] Anonymous Скачать
1 | 0
Фильмы 2009 [ 1.7 GB ] Валгалла: Сага о викинге / Valhalla Rising [2009 HDRip лицензия] DEVI Скачать
1 | 0
Скрипты и шаблоны [ 14 MB ] Simpla CMS 1.1 NULLED / скрипт интернет магазина | Виталий2020 Скачать
1 | 0
Наши фильмы, до 2010 [ 700 MB ] Загадка старого кладбища [2008 DVDRip Жесткий трешак] DEVI Скачать
1 | 0

28-11-2019 20:33  

Отключить всю рекламу на сайте


21-07-2021 17:17 Ага Скачать торрент  

Казахский Хитмен)))pb.wtf



22-07-2021 04:21 Ага Скачать торрент  

бывший меч трех жузов- что это пть ваще должно значить? очередная дичь про бандоса- мстителя, который начал валить других бандосов только потому что задели семью этого бандоса? ??pb.wtf



22-07-2021 22:38 Ага Скачать торрент  

Koshmarwin писал(а):

бывший меч трех жузов- что это пть ваще должно значить? очередная дичь про бандоса- мстителя, который начал валить других бандосов только потому что задели семью этого бандоса? ??

жузы - это типа федеральные округа в рф, тока я так понимаю, неофициальные. У каждого казахского жуза имелось своё исторически сложившееся пространство, территория. Так, у Старшего жуза — Это Семиречье и Южный Казахстан, у Среднего Жуза — Центральный, Восточный и Северный Казахстан, у Младшего жуза — Западный Казахстан.(С) вики а что касается мотивов гг, вполне классическая тема для боевиков, че не так-то? боевики у них получаются куда как брутальнее и жестче чем российские - в первую очередь потому, что у них нет этой маниакальной любви русского кинематографа к соплям)pb.wtf



    Дорогой пользователь! Огромная просьба, поблагодарите релизера, оцените раздачу и оставьте свои комментарий, если Вы скачали Ага через торрент бесплатно! Внесите свою лепту в развитие PiratBit!
    Комментировать посты могут только пользователи прошедшие не сложную регистрацию
    Показать сообщения:    

    Ага через торрент
    Скачать бесплатно Ага
    Ага скачать торрент
    Ага смотреть онлайн
    Cкачать фильм Ага бесплатно
    Ага скачать торрент в хорошем качестве
    Ага смотреть онлайн бесплатно в хорошем качестве


    Вы не можете начинать темы
    Вы не можете отвечать на сообщения
    Вы не можете редактировать свои сообщения
    Вы не можете удалять свои сообщения
    Вы не можете голосовать в опросах
    Вы не можете прикреплять файлы к сообщениям
    Вы можете скачивать файлы