1 сезон

3 сезон

iTunes

1

Line

MVO

iTunes

13

1 сезон

RePack

30

Deluxe

pack

Лицензия

ВАЖНО

ИГРА 18+

pack

RePack

MK11

RePack

jed

RePack

fifa19

RePack

RDR2

RePack

NEED FOR SPEED™ PAYBACK

4 сезон

9 сезон

Бесстыжие 9 сезон

Все сериалы

все сериалы на PB.wtf

RePack

FAR CRY 5

Anonymous, доброй ночи, мы катастрофически не успеваем собрать деньги на оплату серверов, помогите нам пожалуйста 5,10,15р., для нас важна любая помощь . В качестве благодарности мы отключим Вам всю рекламу на сайте (укажите свой ник в строку Ваше имя)!

×
  
Magnet ссылка

Космический спецназ Гарфилда в 3Д / Garfield's Pet Force 3D (Марк А.З. Диппе / Mark A.Z. Dippé) [2009, комедия, семейный, мультфильм, BDRip, 1080p] OverUnder / Вертикальная стереопара(MVO) pb.wtf

Космический спецназ Гарфилда в 3Д через торрент pb.wtf

Раздают: 1 [ 0 KB/s ]
Размер: 6.9 GB | Добавлен: 8 д. назад | Торрент скачан:0 раз
Скачать  

21-07-2021 05:49 Космический спецназ Гарфилда в 3Д Скачать торрент  

Космический спецназ Гарфилда / Garfield's Pet Force

Год выпуска: 2009
Страна: США, Корея Южная
Жанр: комедия, семейный, мультфильм
Продолжительность: 01:13:22

Перевод: Профессиональный (двухголосый закадровый)
Русские субтитры: нет
Режиссер: Марк А.З. Диппе / Mark A.Z. Dippé

Роли озвучивали: Грегг Бергер, Кэти Кавадини, Дженнифер Дарлинг, Грег Иглз, Грег Финли, Джефф Фишер, Ванесса Маршалл, Дэвид Мичи, Пейдж Поллак, Нил Росс

Описание: Всем известный кот-толстяк Гарфилд, большой любитель лазаньи, утраивает пикник со своими друзьями, но этот чудный день был испорчен непрошеными гостями. Оди и Нермал становятся супергероями, чтобы прогнать их, но Гарфилд не следует их примеру, ему просто лень. Но когда друзья оказываются в беде, кот понимает, что пришло время надеть маску героя.

Сэмпл: http://sendfile.su/1613598

Качество: BDrip, 1080p
Контейнер: MKV
Формат 3D: OverUnder / Вертикальная стереопара
Порядок ракурсов: левый ракурс первый
Видео кодек: x264
Аудио кодек: AC3
Видео: AVC / High@L5.0 / 23,976 fps / 1920х2160 / 12,3 Мбит/сек
Аудио: Русский / AC3 / 48 KHz / 2.0 ch / 224 Кбит/сек
Аудио 2: Английский / AC3 / 48 KHz / 5.1 ch / 640 Кбит/сек

ВНИМАНИЕ ! На встроенных ТВ-плеерах работать не будет!!!

ТВ Samsung в названии которого есть надпись Ultra HD , и LG Ultra HD 800 серии, LG C6P, Xiaomi Mi TV 2, GRUNDIG VLE 8474 BL, Samsung UE48H6200AK, SUPRA STV-LC42ST960UL00 воспроизводят полные стереопары встроенными плеерами
Железные плееры на которых воспроизводятся полные стереопары:Popcorn C-200, Popcorn a-400, Dune HD Smart D1 , Dune HD DUO , Dune HD Smart H1 , Dune HD Smart B1 , Dune HD Max , Dune HD TV-303D, Dune HD TV-102, Dune HD Base 3D, Philips HMP7001, Aura HD, MECOOL BB2, Zidoo x9s, Lake I Cloud, MiBox 3
Чтобы изображение было на весь экран в плеере выставляем, если рип 1920х1600 - то выставляем 2.35:1 , если 1920х2160 - то выставляем 16:9
Общее
Уникальный идентификатор : 207507567833694223421872955230087648463 (0x9C1C80FCD2F021348F78DFEA6D0594CF)
Полное имя : E:\видео\Garfield's Pet Force.Rip by SeRoGa00.mkv
Формат : Matroska
Версия формата : Version 2
Размер файла : 6,90 Гбайт
Продолжительность : 1 ч. 13 м.
Общий поток : 13,5 Мбит/сек
Дата кодирования : UTC 2021-07-17 04:50:47
Программа кодирования : mkvmerge v3.4.0 ('Rapunzel') сборка от May 15 2010 09:38:20
Библиотека кодирования : libebml v0.8.0 + libmatroska v0.9.0

Видео
Идентификатор : 1
Формат : AVC
Формат/Информация : Advanced Video Codec
Профиль формата : High@L5.0
Параметр CABAC формата : Да
Параметр ReFrames формата : 4 кадра
Идентификатор кодека : V_MPEG4/ISO/AVC
Продолжительность : 1 ч. 13 м.
Битрейт : 12,3 Мбит/сек
Ширина : 1920 пикселей
Высота : 2160 пикселей
Соотношение сторон : 0,889
Частота кадров : 23,976 кадра/сек
Цветовое пространство : YUV
Субдискретизация насыщенности : 4:2:0
Битовая глубина : 8 бит
Тип развёртки : Прогрессивная
Бит/(Пиксели*Кадры) : 0.124
Размер потока : 6,32 Гбайт (92%)
Заголовок : Rip by SeRoGa00
Библиотека кодирования : x264 core 157 r2969 d4099dd
Настройки программы : cabac=1 / ref=4 / deblock=1:-3:-3 / analyse=0x3:0x113 / me=umh / subme=10 / psy=1 / psy_rd=1.00:0.15 / mixed_ref=1 / me_range=24 / chroma_me=1 / trellis=2 / 8x8dct=1 / cqm=0 / deadzone=21,11 / fast_pskip=1 / chroma_qp_offset=-3 / threads=12 / lookahead_threads=6 / sliced_threads=0 / nr=0 / decimate=0 / interlaced=0 / bluray_compat=0 / constrained_intra=0 / bframes=10 / b_pyramid=2 / b_adapt=2 / b_bias=0 / direct=3 / weightb=1 / open_gop=0 / weightp=2 / keyint=250 / keyint_min=23 / scenecut=40 / intra_refresh=0 / rc_lookahead=60 / rc=crf / mbtree=1 / crf=16.5 / qcomp=0.60 / qpmin=10 / qpmax=69 / qpstep=4 / vbv_maxrate=40000 / vbv_bufsize=40000 / crf_max=0.0 / nal_hrd=none / filler=0 / ip_ratio=1.40 / aq=1:1.00
Язык : English
Default : Нет
Forced : Нет

Аудио #1
Идентификатор : 2
Формат : AC-3
Формат/Информация : Audio Coding 3
Расширение режима : CM (complete main)
Параметр Endianness формата : Big
Идентификатор кодека : A_AC3
Продолжительность : 1 ч. 13 м.
Вид битрейта : Постоянный
Битрейт : 224 Кбит/сек
Каналы : 2 канала
Расположение каналов : Front: L R
Частота : 48,0 КГц
Битовая глубина : 16 бит
Метод сжатия : С потерями
Размер потока : 118 Мбайт (2%)
Язык : Russian
Default : Да
Forced : Нет

Аудио #2
Идентификатор : 3
Формат : AC-3
Формат/Информация : Audio Coding 3
Расширение режима : CM (complete main)
Параметр Endianness формата : Big
Идентификатор кодека : A_AC3
Продолжительность : 1 ч. 13 м.
Вид битрейта : Постоянный
Битрейт : 640 Кбит/сек
Каналы : 6 каналов
Расположение каналов : Front: L C R, Side: L R, LFE
Частота : 48,0 КГц
Битовая глубина : 16 бит
Метод сжатия : С потерями
Размер потока : 336 Мбайт (5%)
Язык : English
Default : Нет
Forced : Нет
скриншот  

скриншот  

скриншот  

скриншот  

скриншот  

скриншот  

скриншот  

скриншот  
pb.wtf



Скачать Космический спецназ Гарфилда в 3Д через торрент https://d.radikal.ru/d21/2107/b3/0133018cb74b.png Скачать фильм Космический спецназ Гарфилда в 3Д через торрент бесплантно в хорошем качестве Описание: Всем известный кот-толстяк Гарфилд, большой любитель лазаньи, утраивает пикник со своими друзьями, но этот чудный день был ... 5 10 1
Торрент: Зарегистрирован [2021-07-21 05:49] · скачан: 0 раз
Статус: √ проверено
Размер: 6.9 GB
Как cкачать? Как скачать Космический спецназ Гарфилда в 3Д через торрент | UTorrent

28-11-2019 20:33  

Отключить всю рекламу на сайте

    Дорогой пользователь! Огромная просьба, поблагодарите релизера, оцените раздачу и оставьте свои комментарий, если Вы скачали Космический спецназ Гарфилда в 3Д через торрент бесплатно! Внесите свою лепту в развитие PiratBit!
    Комментировать посты могут только пользователи прошедшие не сложную регистрацию
    Показать сообщения:    

    Космический спецназ Гарфилда в 3Д через торрент
    Скачать бесплатно Космический спецназ Гарфилда в 3Д
    Космический спецназ Гарфилда в 3Д скачать торрент
    Космический спецназ Гарфилда в 3Д смотреть онлайн
    Cкачать фильм Космический спецназ Гарфилда в 3Д бесплатно
    Космический спецназ Гарфилда в 3Д скачать торрент в хорошем качестве
    Космический спецназ Гарфилда в 3Д смотреть онлайн бесплатно в хорошем качестве


    Вы не можете начинать темы
    Вы не можете отвечать на сообщения
    Вы не можете редактировать свои сообщения
    Вы не можете удалять свои сообщения
    Вы не можете голосовать в опросах
    Вы не можете прикреплять файлы к сообщениям
    Вы можете скачивать файлы