1 сезон

3 сезон

iTunes

1

Line

MVO

iTunes

13

1 сезон

RePack

30

Deluxe

pack

Лицензия

ВАЖНО

ИГРА 18+

pack

RePack

MK11

RePack

jed

RePack

fifa19

RePack

RDR2

RePack

NEED FOR SPEED™ PAYBACK

4 сезон

9 сезон

Бесстыжие 9 сезон

Все сериалы

все сериалы на PB.wtf

RePack

FAR CRY 5

Anonymous, доброй ночи, мы катастрофически не успеваем собрать деньги на оплату серверов, помогите нам пожалуйста 5,10,15р., для нас важна любая помощь . В качестве благодарности мы отключим Вам всю рекламу на сайте (укажите свой ник в строку Ваше имя)!

×
  
Magnet ссылка

Судная ночь навсегда / The Forever Purge (Эверардо Валерио Гоут) [2021, Ужасы, боевик, триллер, WEBRip 1080p] DVO [Pazl Voice] pb.wtf

Судная ночь навсегда через торрент pb.wtf

Раздают: 15 [ 666 KB/s ]
Размер: 5.39 GB | Добавлен: 8 д. назад | Торрент скачан:129 раз
Скачать  

21-07-2021 06:46 Судная ночь навсегда Скачать торрент  

Судная ночь навсегда | The Forever Purge
Год выпуска: 2021
Страна: США, Мексика, Франция
Студия: Blumhouse Productions, Man in A Tree, Perfect World (Beijing) Pictures Co., Пифагор, Platinum Dunes, Universal Pictures
Жанр: Ужасы, боевик, триллер
Продолжительность: 01:43:28
Перевод: Любительский (двухголосый) | Pazl Voice
Субтитры: Английские

Режиссер: Эверардо Валерио Гоут

rating

В ролях: Ана де ла Регера, Теноч Уэрта, Джош Лукас, Ливэн Рамбин, Кэссиди Фриман, Алехандро Эдда, Уилл Пэттон, Уилл Бриттейн, Сэмми Ротиби, Зан Маккларнон

Описание: Этим летом все правила будут нарушены. Группа мародеров решает, что ежегодная Судная ночь не должна заканчиваться с наступлением утра, а может продолжаться бесконечно. Никто больше не будет в безопасности.

Качество: WEBRip 1080p
Формат: MKV

Видео: MPEG-4 AVC, 6623 Кбит/с, 1918x1038
Аудио#1: AC3, 6 ch, 448 Кбит/с | | Tnx.KinoPub
Аудио#2: AC3, 6 ch, 384 Кбит/с |
скриншот  скриншот  скриншот  скриншот  скриншот  

Общее
Уникальный идентификатор : 339985540883134513230049599357438165371 (0xFFC6D558B0A3A3EA77E3F18551A8817B)
Полное имя : E:DownloadsСудная.ночь.навсегда.2021.1080p.WEBRip.KinoPub..mkv
Формат : Matroska
Версия формата : Version 4
Размер файла : 5,39 Гбайт
Продолжительность : 1 ч. 43 м.
Общий поток : 7 457 Кбит/сек
Название фильма : Судная.ночь.навсегда.2021.1080p.WEBRip.KinoPub.
Дата кодирования : UTC 2021-07-19 15:10:02
Программа кодирования : mkvmerge v59.0.0 ('Shining Star') 64-bit
Библиотека кодирования : libebml v1.4.2 + libmatroska v1.6.4

Видео
Идентификатор : 1
Формат : AVC
Формат/Информация : Advanced Video Codec
Профиль формата : High@L4
Настройки формата : CABAC / 4 Ref Frames
Параметр CABAC формата : Да
Параметр RefFrames формата : 4 кадра
Идентификатор кодека : V_MPEG4/ISO/AVC
Продолжительность : 1 ч. 43 м.
Битрейт : 6 623 Кбит/сек
Ширина : 1 918 пикселей
Высота : 1 038 пикселей
Соотношение сторон : 1,85:1
Режим частоты кадров : Постоянный
Частота кадров : 23,976 (24000/1001) кадра/сек
Цветовое пространство : YUV
Субдискретизация насыщенности : 4:2:0
Битовая глубина : 8 бит
Тип развёртки : Прогрессивная
Бит/(Пиксели*Кадры) : 0.139
Размер потока : 4,79 Гбайт (89%)
Default : Да
Forced : Нет
Цветовой диапазон : Limited
Основные цвета : BT.709
Характеристики трансфера : BT.709
Коэффициенты матрицы : BT.709

Аудио #1
Идентификатор : 2
Формат : AC-3
Формат/Информация : Audio Coding 3
Коммерческое название : Dolby Digital
Идентификатор кодека : A_AC3
Продолжительность : 1 ч. 43 м.
Вид битрейта : Постоянный
Битрейт : 448 Кбит/сек
Каналы : 6 каналов
Channel layout : L R C LFE Ls Rs
Частота : 48,0 КГц
Частота кадров : 31,250 кадров/сек (1536 SPF)
Метод сжатия : С потерями
Размер потока : 332 Мбайт (6%)
Заголовок : [DVO] Pazl Voice | KinoPub
Язык : Russian
Service kind : Complete Main
Default : Да
Forced : Нет

Аудио #2
Идентификатор : 3
Формат : AC-3
Формат/Информация : Audio Coding 3
Коммерческое название : Dolby Digital
Идентификатор кодека : A_AC3
Продолжительность : 1 ч. 43 м.
Вид битрейта : Постоянный
Битрейт : 384 Кбит/сек
Каналы : 6 каналов
Channel layout : L R C LFE Ls Rs
Частота : 48,0 КГц
Частота кадров : 31,250 кадров/сек (1536 SPF)
Метод сжатия : С потерями
Размер потока : 284 Мбайт (5%)
Заголовок : English
Язык : English
Service kind : Complete Main
Default : Нет
Forced : Нет

Текст #1
Идентификатор : 4
Формат : UTF-8
Идентификатор кодека : S_TEXT/UTF8
Идентификатор кодека/Информация : UTF-8 Plain Text
Продолжительность : 1 ч. 30 м.
Битрейт : 2 бит/сек
Count of elements : 78
Размер потока : 1,78 Кбайт (0%)
Заголовок : English [Forced]
Язык : English
Default : Нет
Forced : Нет

Текст #2
Идентификатор : 5
Формат : UTF-8
Идентификатор кодека : S_TEXT/UTF8
Идентификатор кодека/Информация : UTF-8 Plain Text
Продолжительность : 1 ч. 43 м.
Битрейт : 65 бит/сек
Count of elements : 1770
Размер потока : 49,9 Кбайт (0%)
Заголовок : English [SDH]
Язык : English
Default : Нет
Forced : Нет

Текст #3
Идентификатор : 6
Формат : UTF-8
Идентификатор кодека : S_TEXT/UTF8
Идентификатор кодека/Информация : UTF-8 Plain Text
Продолжительность : 1 ч. 37 м.
Битрейт : 49 бит/сек
Count of elements : 1334
Размер потока : 35,4 Кбайт (0%)
Заголовок : English
Язык : English
Default : Нет
Forced : Нет

pb.wtf



Скачать Судная ночь навсегда через торрент https://i115.fastpic.ru/big/2021/0720/c0/e54f0b35b8421bdcf9948604ff3e84c0.jpg Скачать фильм Судная ночь навсегда через торрент бесплантно в хорошем качестве Описание: Этим летом все правила будут нарушены. Группа мародеров решает, что ежегодная Судная ночь не должна заканчиваться с наступлением ... 9.9 10 8
Info! Золотая раздача, скачанное не засчитывается.
Торрент: Зарегистрирован [2021-07-21 06:46] · скачан: 129 раз
Статус: T временная
Размер: 5.39 GB
Как cкачать? Как скачать Судная ночь навсегда через торрент | UTorrent

% Раздел Тема Автор DL S | L
T Фильмы 2021 (Звук TS, Cam, VO, DVO) [ 2.05 GB ] Судная ночь навсегда / The Forever Purge [2021 WEBRip-AVC] DVO [Pazl Voice] от MediaBit Lithuania Скачать
11 | 0
T Фильмы 2021 (Звук TS, Cam, VO, DVO) [ 1.46 GB ] Судная ночь навсегда / The Forever Purge [2021 WEB-DLRip] DVO [Pazl Voice] bober100 Скачать
1 | 0
T Фильмы (мультфильмы) cо спонсором показа (Новинки AVI/MKV) [ 7.92 GB ] Судная ночь навсегда / The Forever Purge [2021 WEB-DL 1080p] [Line] killermax2013 Скачать
25 | 1
Фильмы с украинским озвучиванием [ 1.84 GB ] Судная ночь навсегда / Судна ніч назавжди / The Forever Purge [2021 WEBRip 1080p] [Ukr DUB] killermax2013 Скачать
2 | 0
T Фильмы (мультфильмы) cо спонсором показа (Новинки AVI/MKV) [ 1.37 GB ] Судная ночь навсегда / The Forever Purge [2021 WEB-DLRip] [Line] killermax2013 Скачать
35 | 0

28-11-2019 20:33  

Отключить всю рекламу на сайте

    Дорогой пользователь! Огромная просьба, поблагодарите релизера, оцените раздачу и оставьте свои комментарий, если Вы скачали Судная ночь навсегда через торрент бесплатно! Внесите свою лепту в развитие PiratBit!
    Комментировать посты могут только пользователи прошедшие не сложную регистрацию
    Показать сообщения:    

    Судная ночь навсегда через торрент
    Скачать бесплатно Судная ночь навсегда
    Судная ночь навсегда скачать торрент
    Судная ночь навсегда смотреть онлайн
    Cкачать фильм Судная ночь навсегда бесплатно
    Судная ночь навсегда скачать торрент в хорошем качестве
    Судная ночь навсегда смотреть онлайн бесплатно в хорошем качестве


    Вы не можете начинать темы
    Вы не можете отвечать на сообщения
    Вы не можете редактировать свои сообщения
    Вы не можете удалять свои сообщения
    Вы не можете голосовать в опросах
    Вы не можете прикреплять файлы к сообщениям
    Вы можете скачивать файлы