1 сезон

3 сезон

iTunes

1

Line

MVO

iTunes

13

1 сезон

RePack

30

Deluxe

pack

Лицензия

ВАЖНО

ИГРА 18+

pack

RePack

MK11

RePack

jed

RePack

fifa19

RePack

RDR2

RePack

NEED FOR SPEED™ PAYBACK

4 сезон

9 сезон

Бесстыжие 9 сезон

Все сериалы

все сериалы на PB.wtf

RePack

FAR CRY 5

Anonymous, добрый день, мы катастрофически не успеваем собрать деньги на оплату серверов, помогите нам пожалуйста 5,10,15р., для нас важна любая помощь . В качестве благодарности мы отключим Вам всю рекламу на сайте (укажите свой ник в строку Ваше имя)!

×
  
Magnet ссылка

Телохранитель жены киллера / Hitman's Wife's Bodyguard (Патрик Хьюз) [2021, Боевик, комедия, WEB-DL 1080p, (Extended Cut)] DVO [Pazl Voice] pb.wtf

Телохранитель жены киллера через торрент pb.wtf

Раздают: 28 [ 811 KB/s ] Качают: 1 [ 132 KB/s ]
Размер: 6.17 GB | Добавлен: 8 д. назад | Торрент скачан:325 раз
Скачать  

21-07-2021 06:53 Телохранитель жены киллера Скачать торрент  

Телохранитель жены киллера | Hitman's Wife's Bodyguard
Год выпуска: 2021
Страна: Великобритания, США
Выпущено: Millennium Media, Summit Entertainment, Above the Line Set Assistance & Security
Жанр: Боевик, комедия
Продолжительность: 01:56:36
Перевод: Любительский (двухголосый) | Pazl Voice
Субтитры: Aнглийские

Режиссер: Патрик Хьюз

rating

В ролях: Райан Рейнольдс, Сэмюэл Л. Джексон, Сальма Хайек, Морган Фримен, Гэри Олдман, Фрэнк Грилло, Антонио Бандерас, Том Хоппер, Ричард Э. Грант, Кэролайн Гудолл

Описание: Жизнь здорово потрепала нервишки Майкла Брайса, так что с карьерой телохранителя он решил завязать. Психотерапевт посоветовал ему отправиться на тихий курорт, вооружившись лишь книжкой и плейлистом расслабляющей музыки. Но и здесь его находит самая безумная в мире парочка: киллер мирового уровня и настоящий магнит неприятностей Дариус Кинкейд и его супруга Соня— буйная дамочка не робкого десятка. Преступный синдикат устроил на них охоту, и Майклу, при всем желании остаться в стороне, придется вернуться к старому ремеслу и снова стать телохранителем. На этот раз — жены киллера!

Качество: WEB-DL 1080p | Extended Cut
Формат: MKV

Видео: MPEG-4 AVC, 6735 Кбит/с, 1916x796
Аудио#1: AC3, 6 ch, 448 kb/s | |RUS| Tnx.KinoPub
Аудио#2: AC3, 6 ch, 384 kb/s | |ENG|
скриншот  скриншот  скриншот  скриншот  скриншот  

Общее
Уникальный идентификатор : 330689161832041317837378048150296886364 (0xF8C86A78CB2B3C9D08DAE90E29847C5C)
Полное имя : E:DownloadsThe.Hitmans.Wifes.Bodyguard.2021.EXTENDED.1080p.WEB-DL..mkv
Формат : Matroska
Версия формата : Version 4
Размер файла : 6,17 Гбайт
Продолжительность : 1 ч. 56 м.
Общий поток : 7 570 Кбит/сек
Название фильма : The.Hitmans.Wifes.Bodyguard.2021.EXTENDED.1080p.WEB-DL.
Дата кодирования : UTC 2021-07-21 04:51:34
Программа кодирования : mkvmerge v59.0.0 ('Shining Star') 64-bit
Библиотека кодирования : libebml v1.4.2 + libmatroska v1.6.4

Видео
Идентификатор : 1
Формат : AVC
Формат/Информация : Advanced Video Codec
Профиль формата : High@L4
Настройки формата : CABAC / 5 Ref Frames
Параметр CABAC формата : Да
Параметр RefFrames формата : 5 кадров
Идентификатор кодека : V_MPEG4/ISO/AVC
Продолжительность : 1 ч. 56 м.
Битрейт : 6 735 Кбит/сек
Ширина : 1 912 пикселей
Высота : 796 пикселей
Соотношение сторон : 2,40:1
Режим частоты кадров : Постоянный
Частота кадров : 23,976 (24000/1001) кадра/сек
Цветовое пространство : YUV
Субдискретизация насыщенности : 4:2:0
Битовая глубина : 8 бит
Тип развёртки : Прогрессивная
Бит/(Пиксели*Кадры) : 0.185
Размер потока : 5,49 Гбайт (89%)
Default : Да
Forced : Нет
Цветовой диапазон : Limited
Основные цвета : BT.709
Характеристики трансфера : BT.709
Коэффициенты матрицы : BT.709

Аудио #1
Идентификатор : 2
Формат : AC-3
Формат/Информация : Audio Coding 3
Коммерческое название : Dolby Digital
Идентификатор кодека : A_AC3
Продолжительность : 1 ч. 56 м.
Вид битрейта : Постоянный
Битрейт : 448 Кбит/сек
Каналы : 6 каналов
Channel layout : L R C LFE Ls Rs
Частота : 48,0 КГц
Частота кадров : 31,250 кадров/сек (1536 SPF)
Метод сжатия : С потерями
Размер потока : 374 Мбайт (6%)
Заголовок : [DVO] Pazl Voice | KinoPub
Язык : Russian
Service kind : Complete Main
Default : Да
Forced : Нет

Аудио #2
Идентификатор : 3
Формат : AC-3
Формат/Информация : Audio Coding 3
Коммерческое название : Dolby Digital
Идентификатор кодека : A_AC3
Продолжительность : 1 ч. 56 м.
Вид битрейта : Постоянный
Битрейт : 384 Кбит/сек
Каналы : 6 каналов
Channel layout : L R C LFE Ls Rs
Частота : 48,0 КГц
Частота кадров : 31,250 кадров/сек (1536 SPF)
Метод сжатия : С потерями
Размер потока : 320 Мбайт (5%)
Заголовок : English
Язык : English
Service kind : Complete Main
Default : Нет
Forced : Нет

Текст
Идентификатор : 4
Формат : UTF-8
Идентификатор кодека : S_TEXT/UTF8
Идентификатор кодека/Информация : UTF-8 Plain Text
Продолжительность : 1 ч. 50 м.
Битрейт : 87 бит/сек
Count of elements : 2292
Размер потока : 70,8 Кбайт (0%)
Заголовок : English [Full]
Язык : English
Default : Нет
Forced : Нет

Меню
00:00:00.000 : Scene 1
00:15:00.483 : Scene 2
00:29:27.434 : Scene 3
00:45:04.412 : Scene 4
00:59:37.494 : Scene 5
01:16:48.233 : Scene 6
01:29:04.344 : Scene 7

pb.wtf



Скачать Телохранитель жены киллера через торрент https://i1.imageban.ru/out/2021/07/18/85b8e2d3a063d947da171dd72b53f0ca.jpg Скачать фильм Телохранитель жены киллера через торрент бесплантно в хорошем качестве Описание: Жизнь здорово потрепала нервишки Майкла Брайса, так что с карьерой телохранителя он решил завязать. Психотерапевт посоветовал ему ... 9.5 10 10
Торрент: Зарегистрирован [2021-07-21 06:53] · скачан: 325 раз
Статус: T временная
Размер: 6.17 GB
Как cкачать? Как скачать Телохранитель жены киллера через торрент | UTorrent

28-11-2019 20:33  

Отключить всю рекламу на сайте


21-07-2021 13:32 Телохранитель жены киллера Скачать торрент  

сейчас не особо хорошего кино снимают.этот фильм хороший.очень легко посмотрелся.актеры все супер.все здорово.спасибо.pb.wtf



    Дорогой пользователь! Огромная просьба, поблагодарите релизера, оцените раздачу и оставьте свои комментарий, если Вы скачали Телохранитель жены киллера через торрент бесплатно! Внесите свою лепту в развитие PiratBit!
    Комментировать посты могут только пользователи прошедшие не сложную регистрацию
    Показать сообщения:    

    Телохранитель жены киллера через торрент
    Скачать бесплатно Телохранитель жены киллера
    Телохранитель жены киллера скачать торрент
    Телохранитель жены киллера смотреть онлайн
    Cкачать фильм Телохранитель жены киллера бесплатно
    Телохранитель жены киллера скачать торрент в хорошем качестве
    Телохранитель жены киллера смотреть онлайн бесплатно в хорошем качестве


    Вы не можете начинать темы
    Вы не можете отвечать на сообщения
    Вы не можете редактировать свои сообщения
    Вы не можете удалять свои сообщения
    Вы не можете голосовать в опросах
    Вы не можете прикреплять файлы к сообщениям
    Вы можете скачивать файлы