Anonymous, добрый вечер, присоединяйтесь к нам в Telegram!, здесь всегда актуальный адрес сайта, оперативная поддержка и многое другое!

>

5.5

iTunes

7.4

iTunes

7.9

iTunes

1

7.7

1 сезон

6.8

iTunes

7.3

1 сезон

13

6.7

1 сезон

8.3

RePack

30

ULTIMATE

pack

9.9

Лицензия

ВАЖНО

ИГРА 18+

pack

7.3

RePack

MK11

7.7

RePack

jed

7.8

RePack

fifa19

8.5

RePack

RDR2

RePack

NEED FOR SPEED™ PAYBACK

4 сезон

9 сезон

Бесстыжие 9 сезон

Все сериалы

все сериалы на PB.wtf

RePack

FAR CRY 5

Anonymous, добрый вечер, мы катастрофически не успеваем собрать деньги на оплату серверов, помогите нам пожалуйста 5,10,15р., для нас важна любая помощь . В качестве благодарности мы отключим Вам всю рекламу на сайте (укажите свой ник в строку Ваше имя)!

×
  
Magnet ссылка

ИП Пирогова / Сезон: 4 / Серии: 1-20 из 20 (Дарья Балинова) [2021, Комедия, WEBRip 1080p] pb.wtf

ИП Пирогова через торрент pb.wtf

Раздают: 1 [ 0 KB/s ]
Размер: 15.18 GB | Добавлен: 3 мес. 7 д. назад | Торрент скачан:36 раз
Смотреть онлайн ИП Пирогова | Скачать    Ребята, помогите собрать деньги на оплату серверов!!!

21-07-2021 08:10 ИП Пирогова Скачать торрент  

ИП Пирогова
Год выпуска: 2021
Страна: Россия
Жанр: Комедия
Продолжительность: ~ 00:25:00
Перевод: Не требуется
Субтитры: отсутствуют

Режиссер: Дарья Балинова

rating

В ролях: Елена Подкаминская, Данила Дунаев, Александр Панкратов-Чёрный, Александр Константинов, Ксения Теплова, Елена Валюшкина, Дмитрий Лысенков, Алексей Агранович, Сергей Стёпин, Галина Безрук, Василина Юсковец, Андрей Козлов, Андрей Козлов (II), Мария Баева, Роман Курцын, Игорь Юдин

Описание: Оставив родную кондитерскую «Пирогова» на попечении семьи, Вера уезжает в Санкт-Петербург. Совместно с Денисом Алексеевичем и его сетью «Бальзак-Гурмэ» она открывает новое кафе-пекарню. Дела заведения идут в гору, но мысли Веры все чаще возвращаются в Москву. Она вспоминает прошлое и скучает по дому, семье, своему маленькому бизнесу и, конечно, по Андрею. Тем временем жизнь Вериной семьи не стоит на месте: Саша и Валя готовятся к свадьбе, попутно познавая тонкости родительства с сыном Эдгаром. А Дед вовсю налаживает личную жизнь с новой пассией по имени Марьяна.

Качество: WEBRip 1080p
Формат: MKV

Видео: MPEG-4 AVC, ~ 4500 Кбит/с, 1920x1072, 25 кадр/с
Аудио: 48.0 kHz, AC3 Dolby Digital, 2/0 (L,R) ch, ~ 192 kbps
скриншот  скриншот  скриншот  скриншот  

Общее
Уникальный идентификатор : 160890884626940506160380594491204754928 (0x790A750E37C726C294CD53327E7ADDF0)
Полное имя : D:IP.Pirogova.S04.2021.WEB-DL.(1080p)IP.Pirogova.s04e01.2021.WEB-DL.(1080p).mkv
Формат : Matroska
Версия формата : Version 4
Размер файла : 824 Мбайт
Продолжительность : 24 м. 48 с.
Режим общего битрейта : Переменный
Общий поток : 4 646 Кбит/сек
Название фильма : IP.Pirogova.s04e01.2021.WEB-DL.(1080p)
Дата кодирования : UTC 2021-04-28 21:01:59
Программа кодирования : mkvmerge v52.0.0 ('Secret For The Mad') 64-bit
Библиотека кодирования : libebml v1.4.1 + libmatroska v1.6.2

Видео
Идентификатор : 1
Формат : AVC
Формат/Информация : Advanced Video Codec
Профиль формата : High@L4
Настройки формата : CABAC / 1 Ref Frames
Параметр CABAC формата : Да
Параметр RefFrames формата : 1 кадр
Параметр GOP формата : M=1, N=50
Идентификатор кодека : V_MPEG4/ISO/AVC
Продолжительность : 24 м. 48 с.
Вид битрейта : Переменный
Битрейт : 4 453 Кбит/сек
Максимальный битрейт : 4 500 Кбит/сек
Ширина : 1 920 пикселей
Высота : 1 072 пикселя
Соотношение сторон : 16:9
Режим частоты кадров : Постоянный
Частота кадров : 25,000 кадров/сек
Цветовое пространство : YUV
Субдискретизация насыщенности : 4:2:0
Битовая глубина : 8 бит
Тип развёртки : Прогрессивная
Бит/(Пиксели*Кадры) : 0.087
Размер потока : 790 Мбайт (96%)
Default : Да
Forced : Нет

Аудио
Идентификатор : 2
Формат : AC-3
Формат/Информация : Audio Coding 3
Коммерческое название : Dolby Digital
Идентификатор кодека : A_AC3
Продолжительность : 24 м. 48 с.
Вид битрейта : Постоянный
Битрейт : 192 Кбит/сек
Каналы : 2 канала
Channel layout : L R
Частота : 48,0 КГц
Частота кадров : 31,250 кадров/сек (1536 SPF)
Метод сжатия : С потерями
Размер потока : 34,1 Мбайт (4%)
Service kind : Complete Main
Default : Да
Forced : Нет

Когда раздача ведётся путём добавления новых серий, при каждом добавлении создётся новый торрент. Чтобы начать докачку новой серии, пользователям необходимо сделать следующее:
(1) остановить скачивание,
(2) удалить старый торрент у себя из клиента (старые серии удалять не надо),
(3) скачать новый торрент и запустить его у себя в клиенте вместо старого, при этом указать клиенту путь в старую папку, куда и должно происходить скачивание новых серий.
Ваш клиент при этом должен произвести хеширование (проверку) старой папки (если не производит сам - помогите ему сделать это), и будет докачивать только те серии, которых у вас ещё нет. Старые серии при этом не удаляются, а продолжают раздаваться!
Eсли вы уже удалили старые серии, то предотвратить повторную закачку старых серий можно, отжав галочку в соответсвующих местах при запуске нового торрента. По возможности, желательно не удалять старые серии как можно дольше, чтобы релизер не столько продолжал раздавать старые серии, а смог сконцентрироваться на новых.
pb.wtf



Скачать ИП Пирогова через торрент https://d.radikal.ru/d29/2107/c9/2816ce94152d.jpg Скачать, смотреть онлайн ИП Пирогова бесплантно в хорошем качестве Описание: Оставив родную кондитерскую «Пирогова» на попечении семьи, Вера уезжает в Санкт-Петербург. Совместно с Денисом Алексеевичем и его ... 10 10 3
Торрент: Зарегистрирован [2021-07-21 08:10] · скачан: 36 раз
Статус: √ проверено
Размер: 15.18 GB
Как cкачать? Как скачать ИП Пирогова через торрент | UTorrent

% Раздел Тема Автор DL S | L
TNT serials [ 91.44 GB ] ИП Пирогова / Сезон: 4 / Серии: 1-20 из 20 [2021 WEBRip 2160p] bober100 Скачать
2 | 0
TNT serials [ 5.86 GB ] ИП Пирогова / Сезон: 4 / Серии: 1-20 из 20 [2021 WEBRip] bober100 Скачать
2 | 0
TNT serials [ 5.85 GB ] ИП Пирогова / Сезон: 4 / Серии: 1-20 из 20 [2021 WEBRip-AVC] bober100 Скачать
3 | 0
TNT serials [ 10.32 GB ] ИП Пирогова / Сезон: 4 / Серии: 1-20 из 20 [2021 WEBRip 720p] bober100 Скачать
1 | 0

28-11-2019 20:33  

Отключить всю рекламу на сайте

    Дорогой пользователь! Огромная просьба, поблагодарите релизера, оцените раздачу и оставьте свои комментарий, если Вы скачали ИП Пирогова через торрент бесплатно!
    Комментировать посты могут только пользователи прошедшие не сложную регистрацию
    Показать сообщения:    

    ИП Пирогова через торрент
    Скачать бесплатно ИП Пирогова
    ИП Пирогова скачать торрент
    ИП Пирогова смотреть онлайн
    Cкачать фильм ИП Пирогова бесплатно
    ИП Пирогова скачать торрент в хорошем качестве
    ИП Пирогова смотреть онлайн бесплатно в хорошем качестве


    Вы не можете начинать темы
    Вы не можете отвечать на сообщения
    Вы не можете редактировать свои сообщения
    Вы не можете удалять свои сообщения
    Вы не можете голосовать в опросах
    Вы не можете прикреплять файлы к сообщениям
    Вы можете скачивать файлы