1 сезон

3 сезон

iTunes

1

Line

MVO

iTunes

13

1 сезон

RePack

30

Deluxe

pack

Лицензия

ВАЖНО

ИГРА 18+

pack

RePack

MK11

RePack

jed

RePack

fifa19

RePack

RDR2

RePack

NEED FOR SPEED™ PAYBACK

4 сезон

9 сезон

Бесстыжие 9 сезон

Все сериалы

все сериалы на PB.wtf

RePack

FAR CRY 5

Anonymous, добрый день, мы катастрофически не успеваем собрать деньги на оплату серверов, помогите нам пожалуйста 5,10,15р., для нас важна любая помощь . В качестве благодарности мы отключим Вам всю рекламу на сайте (укажите свой ник в строку Ваше имя)!

×
  
Magnet ссылка

Тихое место 2 / A Quiet Place Part II (Джон Красински) [2021, Ужасы, фантастика, триллер, драма, BDRip 720p] DUB [iTunes] pb.wtf

Тихое место 2 через торрент pb.wtf

Раздают: 17 [ 479 KB/s ]
Размер: 4.96 GB | Добавлен: 7 д. назад | Торрент скачан:149 раз
Скачать  

21-07-2021 13:49 Тихое место 2 Скачать торрент  

Тихое место 2 | A Quiet Place Part II
Год выпуска: 2021
Страна: США
Выпущено: Buffalo FilmWorks, Paramount Pictures, Platinum Dunes, Sunday Night Productions
Жанр: Ужасы, фантастика, триллер, драма
Продолжительность: 01:37:00
Перевод: Дублированный | iTunes
Субтитры: Русские (Forced, full), украинские (Full), английские

Режиссер: Джон Красински

rating

В ролях: Эмили Блант, Джон Красински, Милли Симмондс, Ноа Джуп, Киллиан Мёрфи, Джимон Хонсу, Окете Онаодован, Скут МакНэйри, Захари Голингер, Блейк ДеЛонг

Описание: 474 дня прошло после нападения на Землю охотящихся на звук существ, семья Эбботт продолжает бороться за жизнь в полной тишине. Столкнувшись со смертельной угрозой в собственном доме, они вынуждены отправиться во внешний мир, где находят убежище и старого знакомого семьи. Поймав радиосигнал, Реган вычисляет место предполагаемой колонии выживших и решает во что бы то ни стало её разыскать.

Качество: BDRip 720p
Формат: MKV

Видео: MPEG-4 AVC, 1280x536, 6290 Kbit/s, 23.976 fps
Аудио #01: 48 kHz, AC3, 5.1, 384 Kbps | iTunes | RUS |
Аудио #02: 48 kHz, AC3, 5.1, 640 Kbps | Оригинал | ENG |
скриншот  скриншот  скриншот  скриншот  скриншот  

General
Unique ID : 102220493719661599936401649056825544361 (0x4CE6F373534699C32B1DA23DE7750EA9)
Complete name : G:VideoA.Quiet.Place.Part.II.2020.BDRip.720p.seleZen.mkv
Format : Matroska
Format version : Version 4
File size : 4.96 GiB
Duration : 1 h 37 min
Overall bit rate : 7 316 kb/s
Movie name : A Quiet Place Part II 2020 from seleZen
Encoded date : UTC 2021-07-16 12:05:30
Writing application : mkvmerge v53.0.0 ('Fool's Gold') 64-bit
Writing library : libebml v1.4.1 + libmatroska v1.6.2

Video
ID : 1
Format : AVC
Format/Info : Advanced Video Codec
Format profile : High@L4.1
Format settings : CABAC / 12 Ref Frames
Format settings, CABAC : Yes
Format settings, Reference : 12 frames
Codec ID : V_MPEG4/ISO/AVC
Duration : 1 h 37 min
Bit rate : 6 290 kb/s
Width : 1 280 pixels
Height : 536 pixels
Display aspect ratio : 2.40:1
Frame rate mode : Constant
Frame rate : 23.976 (24000/1001) FPS
Color space : YUV
Chroma subsampling : 4:2:0
Bit depth : 8 bits
Scan type : Progressive
Bits/(Pixel*Frame) : 0.382
Stream size : 4.26 GiB (86%)
Title : MTeam
Writing library : x264 core 157 r2938 2b00a84 TnP@MTeam Mod
Encoding settings : cabac=1 / ref=12 / deblock=1:-3:-3 / analyse=0x3:0x133 / me=umh / subme=10 / psy=1 / psy_rd=1.05:0.00 / mixed_ref=1 / me_range=32 / chroma_me=1 / trellis=2 / 8x8dct=1 / cqm=0 / deadzone=21,11 / fast_pskip=0 / chroma_qp_offset=-2 / threads=12 / lookahead_threads=2 / sliced_threads=0 / nr=0 / decimate=0 / interlaced=0 / bluray_compat=0 / constrained_intra=0 / bframes=8 / b_pyramid=2 / b_adapt=2 / b_bias=0 / direct=3 / weightb=1 / open_gop=0 / weightp=2 / keyint=250 / keyint_min=24 / scenecut=40 / intra_refresh=0 / rc_lookahead=250 / rc=crf / mbtree=0 / crf=16.8 / qcomp=0.60 / qpmin=0 / qpmax=69 / qpstep=4 / vbv_maxrate=62500 / vbv_bufsize=78125 / crf_max=0.0 / nal_hrd=none / filler=0 / ip_ratio=1.30 / pb_ratio=1.20 / aq=3:0.80
Language : English
Default : Yes
Forced : No
Color range : Limited
Color primaries : BT.709
Matrix coefficients : BT.709

Audio #1
ID : 2
Format : AC-3
Format/Info : Audio Coding 3
Commercial name : Dolby Digital
Codec ID : A_AC3
Duration : 1 h 37 min
Bit rate mode : Constant
Bit rate : 384 kb/s
Channel(s) : 6 channels
Channel layout : L R C LFE Ls Rs
Sampling rate : 48.0 kHz
Frame rate : 31.250 FPS (1536 SPF)
Compression mode : Lossy
Stream size : 266 MiB (5%)
Title : iTunes
Language : Russian
Service kind : Complete Main
Default : Yes
Forced : Yes

Audio #2
ID : 3
Format : AC-3
Format/Info : Audio Coding 3
Commercial name : Dolby Digital
Codec ID : A_AC3
Duration : 1 h 37 min
Bit rate mode : Constant
Bit rate : 640 kb/s
Channel(s) : 6 channels
Channel layout : L R C LFE Ls Rs
Sampling rate : 48.0 kHz
Frame rate : 31.250 FPS (1536 SPF)
Compression mode : Lossy
Stream size : 444 MiB (9%)
Title : Original
Language : English
Service kind : Complete Main
Default : No
Forced : No

Text #1
ID : 4
Format : UTF-8
Codec ID : S_TEXT/UTF8
Codec ID/Info : UTF-8 Plain Text
Duration : 1 h 35 min
Bit rate : 3 b/s
Count of elements : 78
Stream size : 2.26 KiB (0%)
Title : Forced
Language : Russian
Default : Yes
Forced : Yes

Text #2
ID : 5
Format : UTF-8
Codec ID : S_TEXT/UTF8
Codec ID/Info : UTF-8 Plain Text
Duration : 1 h 35 min
Bit rate : 17 b/s
Count of elements : 331
Stream size : 12.4 KiB (0%)
Title : Full
Language : Russian
Default : No
Forced : No

Text #3
ID : 6
Format : UTF-8
Codec ID : S_TEXT/UTF8
Codec ID/Info : UTF-8 Plain Text
Duration : 1 h 35 min
Bit rate : 17 b/s
Count of elements : 339
Stream size : 12.4 KiB (0%)
Title : Full
Language : Ukrainian
Default : No
Forced : No

Text #4
ID : 7
Format : UTF-8
Codec ID : S_TEXT/UTF8
Codec ID/Info : UTF-8 Plain Text
Duration : 47 min 28 s
Bit rate : 3 b/s
Count of elements : 69
Stream size : 1.26 KiB (0%)
Title : Forced
Language : English
Default : No
Forced : No

Text #5
ID : 8
Format : UTF-8
Codec ID : S_TEXT/UTF8
Codec ID/Info : UTF-8 Plain Text
Duration : 1 h 26 min
Bit rate : 18 b/s
Count of elements : 563
Stream size : 11.9 KiB (0%)
Title : SDH
Language : English
Default : No
Forced : No

Menu
00:00:00.000 : en:Chapter 01
00:06:39.190 : en:Chapter 02
00:12:16.319 : en:Chapter 03
00:17:00.269 : en:Chapter 04
00:26:28.170 : en:Chapter 05
00:33:26.338 : en:Chapter 06
00:38:06.701 : en:Chapter 07
00:45:53.751 : en:Chapter 08
00:51:18.033 : en:Chapter 09
00:55:35.916 : en:Chapter 10
01:02:21.279 : en:Chapter 11
01:08:43.828 : en:Chapter 12
01:16:31.921 : en:Chapter 13
01:21:25.881 : en:Chapter 14
01:28:12.996 : en:Chapter 15

pb.wtf



Скачать Тихое место 2 через торрент https://i115.fastpic.ru/big/2021/0708/ba/ee8d8497eb1677ab3f253b5c2104d5ba.jpg Скачать фильм Тихое место 2 через торрент бесплантно в хорошем качестве Описание: 474 дня прошло после нападения на Землю охотящихся на звук существ, семья Эбботт продолжает бороться за жизнь в полной тишине. ... 10 10 6
Торрент: Зарегистрирован [2021-07-21 13:49] · скачан: 149 раз
Статус: √ проверено
Размер: 4.96 GB
Как cкачать? Как скачать Тихое место 2 через торрент | UTorrent

% Раздел Тема Автор DL S | L
Фильмы 2021 [DVDrip, WEB-DLRip, HDrip] (DUB, MVO) [ 1.47 GB ] Тихое место 2 / A Quiet Place Part II [2021 BDRip] - [Пифагор / Кинопоиск HD] Twi7ter Скачать
140 | 7
Ultra HD (UHD: 2K, 4K, 8K) — видео сверхвысокой чёткости [ 30.17 GB ] Тихое место 2 / A Quiet Place Part II [2021 UHD WEB-DL-HEVC 2160p] 2xDUB [ Пифагор / Кинопоиск HD] bober100 Скачать
3 | 1
Фильмы 2021 [DVDrip, WEB-DLRip, HDrip] (DUB, MVO) [ 746 MB ] Тихое место 2 / A Quiet Place Part II [2021 HDRip] bober100 Скачать
3 | 0
Фильмы (Blu-ray, BD-Remux, HDDVD) [ 21.75 GB ] Тихое место 2 / A Quiet Place Part II [2021 BD Remux 1080p] bober100 Скачать
2 | 0
Фильмы [HD 720p, 1080p] (Хороший звук DUB, MVO) [ 12.41 GB ] Тихое место 2 / A Quiet Place Part II [2021 BDRip 1080p] bober100 Скачать
19 | 0
Ultra HD (UHD: 2K, 4K, 8K) — видео сверхвысокой чёткости [ 43.33 GB ] Тихое место 2 / A Quiet Place Part II [2021 UHD BDRemux 2160p ] bober100 Скачать
2 | 1
Ultra HD (UHD: 2K, 4K, 8K) — видео сверхвысокой чёткости [ 48.79 GB ] Тихое место 2 / A Quiet Place Part II [2021 UHD BDRemux 2160p ] bober100 Скачать
2 | 0

28-11-2019 20:33  

Отключить всю рекламу на сайте

27-07-2021 20:40 Тихое место 2 Скачать торрент  

Мдяяяя, 25 лет назад кинцо бодрее получилось, даже по ящику иногда посматриваю, "Марс атакует" звалось :-) А сиё "чудо" не впечатлило.pb.wtf



    Дорогой пользователь! Огромная просьба, поблагодарите релизера, оцените раздачу и оставьте свои комментарий, если Вы скачали Тихое место 2 через торрент бесплатно! Внесите свою лепту в развитие PiratBit!
    Комментировать посты могут только пользователи прошедшие не сложную регистрацию
    Показать сообщения:    

    Тихое место 2 через торрент
    Скачать бесплатно Тихое место 2
    Тихое место 2 скачать торрент
    Тихое место 2 смотреть онлайн
    Cкачать фильм Тихое место 2 бесплатно
    Тихое место 2 скачать торрент в хорошем качестве
    Тихое место 2 смотреть онлайн бесплатно в хорошем качестве


    Вы не можете начинать темы
    Вы не можете отвечать на сообщения
    Вы не можете редактировать свои сообщения
    Вы не можете удалять свои сообщения
    Вы не можете голосовать в опросах
    Вы не можете прикреплять файлы к сообщениям
    Вы можете скачивать файлы