Всегда рабочее зеркало без VPN и Proxy просто перед .vidak.icu напиши любое слово или цифру, Пример http://1nv5.vidak.icu

MVO

MVO

1 сезон

1

1 сезон

iTunes

1 сезон

13

1 сезон

Deluxe

pack

Рекомендуем

Repack

30

ВАЖНО

RePack

MK11

RePack

jed

RePack

fifa19

RePack

RDR2

RePack

NEED FOR SPEED™ PAYBACK

Кинопоиск HD

6 сезон

 Острые козырьки 6 сезон

Все сериалы

все сериалы на PB.wtf

RePack

FAR CRY 5
  
Magnet ссылка

Тихое место 2 / A Quiet Place Part II (Джон Красински) [2021, Ужасы, фантастика, триллер, драма, BD Remux 1080p] DUB [Лицензия] pb.wtf

Тихое место 2 через торрент pb.wtf

Размер: 21.93 GB | Добавлен: 11 мес. назад | Торрент скачан:64 раза
Смотреть онлайн Тихое место 2 | Скачать    Ребята, помогите собрать деньги на оплату серверов!!!

21-07-2021 13:49 Тихое место 2 Скачать торрент  

Тихое место 2 | A Quiet Place Part II
Год выпуска: 2021
Страна: США
Выпущено: Buffalo FilmWorks, Paramount Pictures, Platinum Dunes, Sunday Night Productions
Жанр: Ужасы, фантастика, триллер, драма
Продолжительность: 01:37:00
Перевод: Дублированный | Лицензия
Субтитры: Русские (Forced, full), украинские (Full), английские

Режиссер: Джон Красински

rating

В ролях: Эмили Блант, Джон Красински, Милли Симмондс, Ноа Джуп, Киллиан Мёрфи, Джимон Хонсу, Окете Онаодован, Скут МакНэйри, Захари Голингер, Блейк ДеЛонг

Описание: 474 дня прошло после нападения на Землю охотящихся на звук существ, семья Эбботт продолжает бороться за жизнь в полной тишине. Столкнувшись со смертельной угрозой в собственном доме, они вынуждены отправиться во внешний мир, где находят убежище и старого знакомого семьи. Поймав радиосигнал, Реган вычисляет место предполагаемой колонии выживших и решает во что бы то ни стало её разыскать.

Качество: BD Remux 1080p
Формат: MKV

Видео: MPEG-4 AVC, 1920x1080, 26.8 Mbit/s, 23.976 fps
Аудио #01: 48 kHz, AC3, 5.1, 640 Kbps | Дублированный | RUS |
Аудио #02: 48 kHz, TrueHD, 7.1, 4224 Kbps | Оригинал | ENG |
Аудио #03: 48 kHz, AC3, 5.1, 640 Kbps | Оригинал | ENG |
скриншот  скриншот  скриншот  скриншот  скриншот  

General
Unique ID : 286090184173646390906347465207472356798 (0xD73AF71A97D553442598439284DA7DBE)
Complete name : F:VideoA.Quiet.Place.Part.II.2020.Lic.BDREMUX.1080p.seleZen.mkv
Format : Matroska
Format version : Version 4
File size : 21.9 GiB
Duration : 1 h 37 min
Overall bit rate mode : Variable
Overall bit rate : 32.4 Mb/s
Movie name : A Quiet Place Part II 2020 from seleZen
Encoded date : UTC 2021-08-12 12:51:41
Writing application : mkvmerge v59.0.0 ('Shining Star') 64-bit
Writing library : libebml v1.4.2 + libmatroska v1.6.4

Video
ID : 1
Format : AVC
Format/Info : Advanced Video Codec
Format profile : [email protected]
Format settings : CABAC / 4 Ref Frames
Format settings, CABAC : Yes
Format settings, Reference : 4 frames
Codec ID : V_MPEG4/ISO/AVC
Duration : 1 h 37 min
Bit rate mode : Variable
Bit rate : 26.8 Mb/s
Maximum bit rate : 29.9 Mb/s
Width : 1 920 pixels
Height : 1 080 pixels
Display aspect ratio : 16:9
Frame rate mode : Constant
Frame rate : 23.976 (24000/1001) FPS
Color space : YUV
Chroma subsampling : 4:2:0
Bit depth : 8 bits
Scan type : Progressive
Bits/(Pixel*Frame) : 0.539
Stream size : 18.1 GiB (83%)
Language : English
Default : Yes
Forced : No

Audio #1
ID : 2
Format : AC-3
Format/Info : Audio Coding 3
Commercial name : Dolby Digital
Codec ID : A_AC3
Duration : 1 h 37 min
Bit rate mode : Constant
Bit rate : 640 kb/s
Channel(s) : 6 channels
Channel layout : L R C LFE Ls Rs
Sampling rate : 48.0 kHz
Frame rate : 31.250 FPS (1536 SPF)
Compression mode : Lossy
Stream size : 444 MiB (2%)
Title : Dub [License]
Language : Russian
Service kind : Complete Main
Default : Yes
Forced : Yes

Audio #2
ID : 3
Format : MLP FBA 16-ch
Format/Info : Meridian Lossless Packing FBA with 16-channel presentation
Commercial name : Dolby TrueHD with Dolby Atmos
Codec ID : A_TRUEHD
Duration : 1 h 37 min
Bit rate mode : Variable
Bit rate : 4 224 kb/s
Maximum bit rate : 7 821 kb/s
Channel(s) : 8 channels
Channel layout : L R C LFE Ls Rs Lb Rb
Sampling rate : 48.0 kHz
Frame rate : 1 200.000 FPS (40 SPF)
Compression mode : Lossless
Stream size : 2.86 GiB (13%)
Title : Original
Language : English
Default : No
Forced : No
Number of dynamic objects : 11
Bed channel count : 1 channel
Bed channel configuration : LFE

Audio #3
ID : 4
Format : AC-3
Format/Info : Audio Coding 3
Commercial name : Dolby Digital
Codec ID : A_AC3
Duration : 1 h 37 min
Bit rate mode : Constant
Bit rate : 640 kb/s
Channel(s) : 6 channels
Channel layout : L R C LFE Ls Rs
Sampling rate : 48.0 kHz
Frame rate : 31.250 FPS (1536 SPF)
Compression mode : Lossy
Stream size : 444 MiB (2%)
Language : English
Service kind : Complete Main
Default : No
Forced : No

Text #1
ID : 5
Format : UTF-8
Codec ID : S_TEXT/UTF8
Codec ID/Info : UTF-8 Plain Text
Duration : 1 h 35 min
Bit rate : 3 b/s
Count of elements : 78
Stream size : 2.26 KiB (0%)
Title : Forced
Language : Russian
Default : Yes
Forced : Yes

Text #2
ID : 6
Format : UTF-8
Codec ID : S_TEXT/UTF8
Codec ID/Info : UTF-8 Plain Text
Duration : 1 h 35 min
Bit rate : 17 b/s
Count of elements : 331
Stream size : 12.4 KiB (0%)
Title : Full
Language : Russian
Default : No
Forced : No

Text #3
ID : 7
Format : UTF-8
Codec ID : S_TEXT/UTF8
Codec ID/Info : UTF-8 Plain Text
Duration : 1 h 35 min
Bit rate : 17 b/s
Count of elements : 339
Stream size : 12.4 KiB (0%)
Title : Full
Language : Ukrainian
Default : No
Forced : No

Text #4
ID : 8
Format : UTF-8
Codec ID : S_TEXT/UTF8
Codec ID/Info : UTF-8 Plain Text
Duration : 47 min 28 s
Bit rate : 3 b/s
Count of elements : 69
Stream size : 1.26 KiB (0%)
Title : Forced
Language : English
Default : No
Forced : No

Text #5
ID : 9
Format : UTF-8
Codec ID : S_TEXT/UTF8
Codec ID/Info : UTF-8 Plain Text
Duration : 1 h 26 min
Bit rate : 18 b/s
Count of elements : 563
Stream size : 11.9 KiB (0%)
Title : SDH
Language : English
Default : No
Forced : No

Menu
00:00:00.000 : Chapter 01
00:06:39.190 : Chapter 02
00:12:16.319 : Chapter 03
00:17:00.269 : Chapter 04
00:26:28.170 : Chapter 05
00:33:26.338 : Chapter 06
00:38:06.701 : Chapter 07
00:45:53.751 : Chapter 08
00:51:18.033 : Chapter 09
00:55:35.916 : Chapter 10
01:02:21.279 : Chapter 11
01:08:43.828 : Chapter 12
01:16:31.921 : Chapter 13
01:21:25.881 : Chapter 14
01:28:12.996 : Chapter 15

pb.wtf



Скачать Тихое место 2 через торрент https://i115.fastpic.ru/big/2021/0708/ba/ee8d8497eb1677ab3f253b5c2104d5ba.jpg Скачать, смотреть онлайн Тихое место 2 бесплантно в хорошем качестве Описание: 474 дня прошло после нападения на Землю охотящихся на звук существ, семья Эбботт продолжает бороться за жизнь в полной тишине. ... 10 10 5
Торрент: Зарегистрирован [2021-08-12 17:06] · скачан: 64 раз
Статус: √ проверено
Размер: 21.93 GB
Как cкачать? Как скачать Тихое место 2 через торрент | UTorrent

% Раздел Тема Автор DL S | L
Ultra HD (UHD: 2K, 4K, 8K) — видео сверхвысокой чёткости [ 42.75 GB ] Тихое место 2 / A Quiet Place Part II [2021 UHD BDRemux 2160p ] DUB [] bober100 Скачать
1 | 0
Фильмы [HD 720p, 1080p] (Хороший звук DUB, MVO) [ 12.58 GB ] Тихое место 2 / A Quiet Place Part II [2021 BDRip 1080p] DUB [] bober100 Скачать
1 | 0
Фильмы 2021 [DVDrip, WEB-DLRip, HDrip] (DUB, MVO) [ 1.47 GB ] Тихое место 2 / A Quiet Place Part II [2021 BDRip] - [] Twi7ter Скачать
6 | 0
Фильмы (WEB-DL 720p, 1080p) [ 7.66 GB ] Тихое место 2 / A Quiet Place Part II [2021 WEB-DL 1080p] bober100 Скачать
2 | 0
Фильмы [HD 720p, 1080p] (Хороший звук DUB, MVO) [ 5.13 GB ] Тихое место 2 / A Quiet Place Part II [2021 BDRip 720p] DUB [] bober100 Скачать
1 | 0
Ultra HD (UHD: 2K, 4K, 8K) — видео сверхвысокой чёткости [ 30.17 GB ] Тихое место 2 / A Quiet Place Part II [2021 UHD WEB-DL-HEVC 2160p] 2xDUB [ Пифагор / Кинопоиск HD] bober100 Скачать
2 | 0
Фильмы 2021 [DVDrip, WEB-DLRip, HDrip] (DUB, MVO) [ 746 MB ] Тихое место 2 / A Quiet Place Part II [2021 HDRip] bober100 Скачать
1 | 0

28-11-2019 20:33  

Отключить вcю реклaмy на сайте

    Дорогой пользователь! Огромная просьба, поблагодарите релизера, оцените раздачу и оставьте свои комментарий, если Вы скачали Тихое место 2 через торрент бесплатно!
    Комментировать посты могут только пользователи прошедшие не сложную регистрацию
    Показать сообщения:    

    Тихое место 2 через торрент
    Скачать бесплатно Тихое место 2
    Тихое место 2 скачать торрент
    Тихое место 2 смотреть онлайн
    Cкачать фильм Тихое место 2 бесплатно
    Тихое место 2 скачать торрент в хорошем качестве
    Тихое место 2 смотреть онлайн бесплатно в хорошем качестве


    Вы не можете начинать темы
    Вы не можете отвечать на сообщения
    Вы не можете редактировать свои сообщения
    Вы не можете удалять свои сообщения
    Вы не можете голосовать в опросах
    Вы не можете прикреплять файлы к сообщениям
    Вы можете скачивать файлы