1 сезон

3 сезон

iTunes

1

Line

MVO

iTunes

13

1 сезон

RePack

30

Deluxe

pack

Лицензия

ВАЖНО

ИГРА 18+

pack

RePack

MK11

RePack

jed

RePack

fifa19

RePack

RDR2

RePack

NEED FOR SPEED™ PAYBACK

4 сезон

9 сезон

Бесстыжие 9 сезон

Все сериалы

все сериалы на PB.wtf

RePack

FAR CRY 5

Anonymous, доброй ночи, мы катастрофически не успеваем собрать деньги на оплату серверов, помогите нам пожалуйста 5,10,15р., для нас важна любая помощь . В качестве благодарности мы отключим Вам всю рекламу на сайте (укажите свой ник в строку Ваше имя)!

×
  
Magnet ссылка

Фитнес / Королева фитнеса / Сезон: 5 / Серии: 1-10 из 20 (Кирилл Васильев) [2021, Комедия, WEBRip] pb.wtf

Фитнес через торрент pb.wtf

Раздают: 4 [ 153 KB/s ] Качают: 7 [ 0 KB/s ]
Размер: 3.42 GB | Добавлен: 19 ч. назад | Торрент скачан:5 раз
Скачать  

21-07-2021 17:54 Фитнес Скачать торрент  

Фитнес | Королева фитнеса
Год выпуска: 2021
Страна: Россия
Выпущено: Производство ООО «СУПЕР продакшн»
Жанр: Комедия
Продолжительность: ~ 00:25:00 (Серия)
Перевод: Не требуется
Субтитры: отсутствуют

Режиссер: Кирилл Васильев



В ролях: Софья Зайка, Михаил Трухин, Татьяна Храмова (II), Роман Курцын, Борис Дергачев, Марианна Шульц, Алексей Демидов, Филипп Бледный, Зоя Мансурова, Александр Шульгин (II), Фэй Я Цзоу, Кристина Юдичева, Дмитрий Чеботарёв, Евгений Михеев, Софья Донианц, Лёля Баранова, Николай Шрайбер, Светлана Камынина, Елизавета Мартинес, Владимир Максимов (VI), Пётр Королёв (II), Анатолий Петрунин, Дмитрий Морозов, Ирина Бякова, Сергей Троев, Руслан Банковский, Дмитрий Овчинников, Евгений Зеленский, Алла Николаева, Антон Никушин, Нина Кириллова, Дмитрий Калихов, Алексей Карпов (III), Стефан Бузылев, Андрей Артамонов, Анастасия Ушакова (II), Арина Горбачёва, Ирина Чипиженко, Николай Герман

Описание: Жизнь главной героини Аси Королевой наконец-то обретает понятные очертания. У неё есть парень и бизнес-тренер в одном лице, и она планирует всецело посвятить себя коучингу. Но… Белла неожиданно переписывает «СуперФит» на Асю и Бориса, делая их владельцами неработающего фитнес-клуба.

Качество: WEBRip
Формат: AVI

Видео: XviD, 720x400, ~ 1800 Кбит/с, 0.248 bit/pixel, 25 Кадр/с
Аудио: 48.0 kHz, AC3 Dolby Digital, 2/0 (L,R) ch, ~ 192 kbps
скриншот  скриншот  скриншот  скриншот  

Общее
Полное имя : D:\Fitnes.S05.WEB-DLRip.25Kuzmich\Fitnes.s05.e01.WEB-DLRip.25Kuzmich.avi
Формат : AVI
Формат/Информация : Audio Video Interleave
Размер файла : 350 Мбайт
Продолжительность : 24 м. 38 с.
Общий поток : 1 988 Кбит/сек
Программа кодирования : VirtualDubMod 1.5.10.3 | www.virtualdub-fr.org || (build 2550/release)
Библиотека кодирования : VirtualDubMod build 2550/release

Видео
Идентификатор : 0
Формат : MPEG-4 Visual
Профиль формата : Advanced Simple@L5
Настройки формата : BVOP1
Параметр BVOP формата : 1
Параметр QPel формата : Нет
Параметр GMC формата : Без точки перехода
Параметр матрицы формата : Default (MPEG)
Идентификатор кодека : XVID
Идентификатор кодека/Подсказка : XviD
Продолжительность : 24 м. 38 с.
Битрейт : 1 786 Кбит/сек
Ширина : 720 пикселей
Высота : 400 пикселей
Соотношение сторон : 16:9
Частота кадров : 25,000 кадров/сек
Цветовое пространство : YUV
Субдискретизация насыщенности : 4:2:0
Битовая глубина : 8 бит
Тип развёртки : Прогрессивная
Метод сжатия : С потерями
Бит/(Пиксели*Кадры) : 0.248
Размер потока : 315 Мбайт (90%)
Библиотека кодирования : XviD 73

Аудио
Идентификатор : 1
Формат : AC-3
Формат/Информация : Audio Coding 3
Коммерческое название : Dolby Digital
Идентификатор кодека : 2000
Продолжительность : 24 м. 38 с.
Вид битрейта : Постоянный
Битрейт : 192 Кбит/сек
Каналы : 2 канала
Channel layout : L R
Частота : 48,0 КГц
Частота кадров : 31,250 кадров/сек (1536 SPF)
Метод сжатия : С потерями
Размер потока : 33,8 Мбайт (10%)
Выравнивание : Разделение по промежуткам
Продолжительность промежутка : 40 мс. (1,00 видеокадр)
Время предзагрузки промежутка : 500 мс.
Service kind : Complete Main

Внимание! Раздача ведётся путём добавления новых серий; при каждом добавлении создаётся новый торрент.
Чтобы начать докачку новой серии, пользователям необходимо сделать следующее:
1. Остановить скачивание;
2. Удалить старый торрент у себя из клиента (старые серии удалять не надо);
3. Скачать новый торрент и запустить его у себя в клиенте вместо старого, при этом указать клиенту путь в старую папку куда и должно происходить скачивание новых серий. Ваш клиент при этом должен произвести хеширование (проверку) старой папки и будет докачивать только те серии, которых у вас ещё нет. Старые серии при этом не удаляются, а продолжают раздаваться! Eсли вы уже удалили старые серии, то предотвратить повторную закачку старых серий можно, отжав галочку в соответствующих местах при запуске нового торрента.
pb.wtf



Скачать Фитнес через торрент https://a.radikal.ru/a12/2107/7c/6b2ade420fae.jpg Скачать фильм Фитнес через торрент бесплантно в хорошем качестве Описание: Жизнь главной героини Аси Королевой наконец-то обретает понятные очертания. У неё есть парень и бизнес-тренер в одном лице, и она ... 10 10 7
Торрент: Зарегистрирован [2021-07-29 02:43] · скачан: 5 раз
Статус: √ проверено
Размер: 3.42 GB
Как cкачать? Как скачать Фитнес через торрент | UTorrent

% Раздел Тема Автор DL S | L
TNT serials [ 4.59 GB ] Фитнес / Королева фитнеса / Сезон: 5 / Серии: 1-6 из 20 [2021 WEBRip 1080p] bober100 Скачать
6 | 0

28-11-2019 20:33  

Отключить всю рекламу на сайте

    Дорогой пользователь! Огромная просьба, поблагодарите релизера, оцените раздачу и оставьте свои комментарий, если Вы скачали Фитнес через торрент бесплатно! Внесите свою лепту в развитие PiratBit!
    Комментировать посты могут только пользователи прошедшие не сложную регистрацию
    Показать сообщения:    

    Фитнес через торрент
    Скачать бесплатно Фитнес
    Фитнес скачать торрент
    Фитнес смотреть онлайн
    Cкачать фильм Фитнес бесплатно
    Фитнес скачать торрент в хорошем качестве
    Фитнес смотреть онлайн бесплатно в хорошем качестве


    Вы не можете начинать темы
    Вы не можете отвечать на сообщения
    Вы не можете редактировать свои сообщения
    Вы не можете удалять свои сообщения
    Вы не можете голосовать в опросах
    Вы не можете прикреплять файлы к сообщениям
    Вы можете скачивать файлы