1 сезон

3 сезон

iTunes

1

Line

MVO

iTunes

13

1 сезон

RePack

30

Deluxe

pack

Лицензия

ВАЖНО

ИГРА 18+

pack

RePack

MK11

RePack

jed

RePack

fifa19

RePack

RDR2

RePack

NEED FOR SPEED™ PAYBACK

4 сезон

9 сезон

Бесстыжие 9 сезон

Все сериалы

все сериалы на PB.wtf

RePack

FAR CRY 5

Anonymous, добрый день, мы катастрофически не успеваем собрать деньги на оплату серверов, помогите нам пожалуйста 5,10,15р., для нас важна любая помощь . В качестве благодарности мы отключим Вам всю рекламу на сайте (укажите свой ник в строку Ваше имя)!

×
  
Magnet ссылка

По волчьим законам / Animal Kingdom / Сезон: 5 / Серии: 1-2 из 13 (Джон Уэллс, Ник Копус, Дэйв Родригез) [2021, Драма, криминал, WEB-DL 1080p] MVO [NewStudio] pb.wtf

По волчьим законам через торрент pb.wtf

Размер: 6.75 GB | Добавлен: 6 д. назад | Торрент скачан:3 раза
Скачать  

22-07-2021 01:46 По волчьим законам Скачать торрент  

По волчьим законам | Animal Kingdom
Год выпуска: 2021
Страна: США
Студия: TNT
Жанр: Драма, криминал
Продолжительность: ~ 00:46:00
Перевод: Профессиональный многоголосый | NewStudio
Субтитры: Русские (Forced, Full |«LostFilm»|, английские (SDH)

Режиссер: Джон Уэллс, Ник Копус, Дэйв Родригез

rating скриншот  скриншот  

В ролях: Эллен Баркин, Финн Коул, Скотт Спидман, Бен Робсон, Даниэлла Алонсо, Шон Хэтоси, Райан Дорси, Анна Белкнап, Джейк Вири, Карен Малина Уайт и др.

Описание: После смерти матери 17-летний Джошуа Коди переезжает к своей родне в пляжный городок в Южной Калифорнии. Семейным делом руководит бабушка Джошуа - Джанин Коди. Главный её помощник — старший из братьев Коди, Поуп. Остальные сыновья тоже помогают матери по мере сил. Вскоре Джошуа понимает, что фамильный бизнес связан с криминалом, и что теперь он волей-неволей сделался частью этого нового для него и смертельно опасного мира.

Качество: WEB-DL 1080p
Формат: MKV

Видео: 1920x1080 (16:9), 23.976 fps, ~ 9200 Kbps
Аудио №1: AC3, 48,0 kHz, 6 ch, 384 kbps | NewStudio
Аудио №2: AC3, 48,0 kHz, 6 ch, 640 kbps | Original
скриншот  скриншот  скриншот  скриншот  

Complete name : D:Animal_Kingdom_(s05)_NewStudio_1080pAnimal.Kingdom.2021.S05E01.Red.Handed.1080p.AMZN.WEB-DL.DD5.1.x264-GOSSIP_EniaHD.mkv
Format : Matroska
Format version : Version 4
File size : 3.37 GiB
Duration : 46 min 4 s
Overall bit rate : 10.5 Mb/s
Encoded date : UTC 2021-07-22 01:13:08
Writing application : mkvmerge v58.0.0 ('Supper's Ready') 64-bit
Writing library : libebml v1.4.2 + libmatroska v1.6.4

Video
ID : 1
Format : AVC
Format/Info : Advanced Video Codec
Format profile : High@L4
Format settings : CABAC / 4 Ref Frames
Format settings, CABAC : Yes
Format settings, Reference : 4 frames
Codec ID : V_MPEG4/ISO/AVC
Duration : 46 min 4 s
Bit rate mode : Constant
Bit rate : 9 194 kb/s
Nominal bit rate : 10 000 kb/s
Width : 1 920 pixels
Height : 1 080 pixels
Display aspect ratio : 16:9
Frame rate mode : Constant
Frame rate : 23.976 (24000/1001) FPS
Color space : YUV
Chroma subsampling : 4:2:0
Bit depth : 8 bits
Scan type : Progressive
Bits/(Pixel*Frame) : 0.185
Stream size : 2.96 GiB (88%)
Title : Release by EniaHD
Language : English
Default : Yes
Forced : No
Color range : Limited
Color primaries : BT.709
Transfer characteristics : BT.709
Matrix coefficients : BT.709

Audio #1
ID : 2
Format : AC-3
Format/Info : Audio Coding 3
Commercial name : Dolby Digital
Codec ID : A_AC3
Duration : 46 min 4 s
Bit rate mode : Constant
Bit rate : 640 kb/s
Channel(s) : 6 channels
Channel layout : L R C LFE Ls Rs
Sampling rate : 48.0 kHz
Frame rate : 31.250 FPS (1536 SPF)
Compression mode : Lossy
Stream size : 211 MiB (6%)
Title : NewStudio
Language : Russian
Service kind : Complete Main
Default : Yes
Forced : No

Audio #2
ID : 3
Format : AC-3
Format/Info : Audio Coding 3
Commercial name : Dolby Digital
Codec ID : A_AC3
Duration : 46 min 4 s
Bit rate mode : Constant
Bit rate : 640 kb/s
Channel(s) : 6 channels
Channel layout : L R C LFE Ls Rs
Sampling rate : 48.0 kHz
Frame rate : 31.250 FPS (1536 SPF)
Compression mode : Lossy
Stream size : 211 MiB (6%)
Language : English
Service kind : Complete Main
Default : No
Forced : No

Text #1
ID : 4
Format : UTF-8
Codec ID : S_TEXT/UTF8
Codec ID/Info : UTF-8 Plain Text
Duration : 3 s 0 ms
Bit rate : 256 b/s
Count of elements : 1
Stream size : 96.0 Bytes (0%)
Title : Forced
Language : Russian
Default : Yes
Forced : No

Text #2
ID : 5
Format : UTF-8
Codec ID : S_TEXT/UTF8
Codec ID/Info : UTF-8 Plain Text
Duration : 44 min 57 s
Bit rate : 54 b/s
Count of elements : 464
Stream size : 17.8 KiB (0%)
Title : Full |LostFilm|
Language : Russian
Default : No
Forced : No

Text #3
ID : 6
Format : UTF-8
Codec ID : S_TEXT/UTF8
Codec ID/Info : UTF-8 Plain Text
Duration : 46 min 3 s
Bit rate : 45 b/s
Count of elements : 789
Stream size : 15.4 KiB (0%)
Title : SDH
Language : English
Default : No
Forced : No

Внимание! Раздача ведётся путём добавления новых серий; при каждом добавлении создаётся новый торрент.
Чтобы начать докачку новой серии, пользователям необходимо сделать следующее:
1. Остановить скачивание;
2. Удалить старый торрент у себя из клиента (старые серии удалять не надо);
3. Скачать новый торрент и запустить его у себя в клиенте вместо старого, при этом указать клиенту путь в старую папку куда и должно происходить скачивание новых серий. Ваш клиент при этом должен произвести хеширование (проверку) старой папки и будет докачивать только те серии, которых у вас ещё нет. Старые серии при этом не удаляются, а продолжают раздаваться! Eсли вы уже удалили старые серии, то предотвратить повторную закачку старых серий можно, отжав галочку в соответствующих местах при запуске нового торрента.

pb.wtf



Скачать По волчьим законам через торрент http://i115.fastpic.ru/big/2021/0704/7b/98e933d399bc4c3378e53e8a36da447b.png Скачать фильм По волчьим законам через торрент бесплантно в хорошем качестве Описание: После смерти матери 17-летний Джошуа Коди переезжает к своей родне в пляжный городок в Южной Калифорнии. Семейным делом руководит ... 10 10 4
Торрент: Зарегистрирован [2021-07-23 03:51] · скачан: 3 раз
Статус: √ проверено
Размер: 6.75 GB
Как cкачать? Как скачать По волчьим законам через торрент | UTorrent

% Раздел Тема Автор DL S | L
Зарубежные сериалы [ 6.58 GB ] По волчьим законам / Animal Kingdom / Сезон: 5 / Серия: 1-2 из 13 [2021 WEBRip 1080p] [MVO] killermax2013 Скачать
3 | 2

28-11-2019 20:33  

Отключить всю рекламу на сайте

    Дорогой пользователь! Огромная просьба, поблагодарите релизера, оцените раздачу и оставьте свои комментарий, если Вы скачали По волчьим законам через торрент бесплатно! Внесите свою лепту в развитие PiratBit!
    Комментировать посты могут только пользователи прошедшие не сложную регистрацию
    Показать сообщения:    

    По волчьим законам через торрент
    Скачать бесплатно По волчьим законам
    По волчьим законам скачать торрент
    По волчьим законам смотреть онлайн
    Cкачать фильм По волчьим законам бесплатно
    По волчьим законам скачать торрент в хорошем качестве
    По волчьим законам смотреть онлайн бесплатно в хорошем качестве


    Вы не можете начинать темы
    Вы не можете отвечать на сообщения
    Вы не можете редактировать свои сообщения
    Вы не можете удалять свои сообщения
    Вы не можете голосовать в опросах
    Вы не можете прикреплять файлы к сообщениям
    Вы можете скачивать файлы