1 сезон

3 сезон

iTunes

1

Line

MVO

iTunes

13

1 сезон

RePack

30

Deluxe

pack

Лицензия

ВАЖНО

ИГРА 18+

pack

RePack

MK11

RePack

jed

RePack

fifa19

RePack

RDR2

RePack

NEED FOR SPEED™ PAYBACK

4 сезон

9 сезон

Бесстыжие 9 сезон

Все сериалы

все сериалы на PB.wtf

RePack

FAR CRY 5

Anonymous, добрый день, мы катастрофически не успеваем собрать деньги на оплату серверов, помогите нам пожалуйста 5,10,15р., для нас важна любая помощь . В качестве благодарности мы отключим Вам всю рекламу на сайте (укажите свой ник в строку Ваше имя)!

×
  
Magnet ссылка

Американские истории ужасов / American Horror Stories / Сезон: 1 / Серии: 1-2 из 16 (Лони Перистер) [2021, Ужасы, триллер, драма, WEB-DL 1080p] 3xMVO [LostFilm, NewStudio, TVShows] pb.wtf

Американские истории ужасов через торрент pb.wtf

Раздают: 5 [ 327 KB/s ] Качают: 1 [ 0 KB/s ]
Размер: 2.56 GB | Добавлен: 7 д. назад | Торрент скачан:45 раз
Скачать  

22-07-2021 01:57 Американские истории ужасов Скачать торрент  

Американские истории ужасов
American Horror Story

«***»
Год выпуска: 2021
Страна: США
Выпущено: FX Productions, Ryan Murphy Productions
Жанр: Ужасы, триллер, драма
Продолжительность: 00:48:00 серия
Премьера (мир): 15 июля 2021
Перевод:
- Профессиональный (многоголосый закадровый) | Lostfilm
- Профессиональный (многоголосый закадровый) | NewStudio
- Профессиональный (многоголосый закадровый) | TVShows
Субтитры: Русские (FOCS), английские (SDH)

Режиссер: Лони Перистер, Мэнни Кото, Санаа Хамри

rating

В ролях: Мэтт Бомер (Matt Bomer), Гэвин Крил (Gavin Creel), Сьерра Маккормик (Sierra McCormick), Пэрис Джексон (Paris Jackson), Белисса Эскобедо (Belissa Escobedo), Меррин Данги (Merrin Dungey), Эшли Мартин Картер (Ashley Martin Carter), Дэйн Дильего (Dane DiLiegro), Девин Ла Белла (Devyn La Bella)

Описание: В первом эпизоде девочка-подросток и ее отец переезжают в старый заброшенный дом, о котором ходят нехорошие слухи. Приступив к его ремонту, они понимают, что, как бы это дико ни звучало, с каждым забитым гвоздем в них проникает тьма. Во второй серии тьма проникнет в едва зарождающиеся романтические отношения пары. В третьей к катастрофическим последствиями приведет показ запрещенного кинофильма, а четвертая затронет тему фотографий, которые не стоило бы, не подумав, постить в Интернете. Каждая из шестнадцати историй проведет зрителей сквозь мрак и ужас иногда сверхъестественного, а иногда вполне себе человеческого происхождения. Героям сериала придется предавать себя и близких, преодолевать самые страшные фобии и до последней капли крови сражаться за свою психику, а порой и за жизнь.

Качество: WEB-DL 1080p
Формат: MKV

Видео: AVC, 1920 x 1080 (1.778), 23.976 fps, ~2 458 kbps
Аудио Rus: AC-3, 48 kHz, 2 ch, 384 kbps |Lostfilm|
Аудио Rus: AC-3, 48 kHz, 6 ch, 384 kbps |NewStudio|
Аудио Rus: AC-3, 48 kHz, 6 ch, 384 kbps |TVShows|
Аудио Eng: E-AC-3, 48 kHz, 6 ch, 256 kbps |Original|
скриншот  скриншот  скриншот  скриншот  

Общее
Уникальный идентификатор : 250846441110619726043803643993662500836 (0xBCB74469B22568A4D8BB433B02AD2FE4)
Полное имя : E:\_Сериалы\_Сериалы\Американские истории\American.Horror.Stories.S01.WEB-DL.1080p.Rus.Eng\American.Horror.Stories.S01E01.WEBDL.1080p.RGzsRutracker.mkv
Формат : Matroska
Версия формата : Version 4
Размер файла : 1,31 Гбайт
Продолжительность : 48 м. 23 с.
Общий поток : 3 869 Кбит/сек
Дата кодирования : UTC 2021-07-21 14:26:31
Программа кодирования : mkvmerge v59.0.0 ('Shining Star') 64-bit
Библиотека кодирования : libebml v1.4.2 + libmatroska v1.6.4

Видео
Идентификатор : 1
Формат : AVC
Формат/Информация : Advanced Video Codec
Профиль формата : High@L4
Настройки формата : CABAC / 4 Ref Frames
Параметр CABAC формата : Да
Параметр RefFrames формата : 4 кадра
Идентификатор кодека : V_MPEG4/ISO/AVC
Продолжительность : 48 м. 23 с.
Битрейт : 2 458 Кбит/сек
Ширина : 1 920 пикселей
Высота : 1 080 пикселей
Соотношение сторон : 16:9
Режим частоты кадров : Постоянный
Частота кадров : 23,976 (24000/1001) кадра/сек
Цветовое пространство : YUV
Субдискретизация насыщенности : 4:2:0
Битовая глубина : 8 бит
Тип развёртки : Прогрессивная
Бит/(Пиксели*Кадры) : 0.049
Размер потока : 851 Мбайт (64%)
Язык : English
Default : Да
Forced : Нет

Аудио #1
Идентификатор : 2
Формат : AC-3
Формат/Информация : Audio Coding 3
Коммерческое название : Dolby Digital
Идентификатор кодека : A_AC3
Продолжительность : 48 м. 23 с.
Вид битрейта : Постоянный
Битрейт : 384 Кбит/сек
Каналы : 2 канала
Channel layout : L R
Частота : 48,0 КГц
Частота кадров : 31,250 кадров/сек (1536 SPF)
Метод сжатия : С потерями
Размер потока : 133 Мбайт (10%)
Заголовок : LF
Язык : Russian
Service kind : Complete Main
Default : Да
Forced : Нет

Аудио #2
Идентификатор : 3
Формат : AC-3
Формат/Информация : Audio Coding 3
Коммерческое название : Dolby Digital
Идентификатор кодека : A_AC3
Продолжительность : 48 м. 23 с.
Вид битрейта : Постоянный
Битрейт : 384 Кбит/сек
Каналы : 6 каналов
Channel layout : L R C LFE Ls Rs
Частота : 48,0 КГц
Частота кадров : 31,250 кадров/сек (1536 SPF)
Метод сжатия : С потерями
Размер потока : 133 Мбайт (10%)
Заголовок : NS
Язык : Russian
Service kind : Complete Main
Default : Нет
Forced : Нет

Аудио #3
Идентификатор : 4
Формат : AC-3
Формат/Информация : Audio Coding 3
Коммерческое название : Dolby Digital
Идентификатор кодека : A_AC3
Продолжительность : 48 м. 23 с.
Вид битрейта : Постоянный
Битрейт : 384 Кбит/сек
Каналы : 6 каналов
Channel layout : L R C LFE Ls Rs
Частота : 48,0 КГц
Частота кадров : 31,250 кадров/сек (1536 SPF)
Метод сжатия : С потерями
Размер потока : 133 Мбайт (10%)
Заголовок : TVS
Язык : Russian
Service kind : Complete Main
Default : Нет
Forced : Нет

Аудио #4
Идентификатор : 5
Формат : E-AC-3
Формат/Информация : Enhanced AC-3
Коммерческое название : Dolby Digital Plus
Идентификатор кодека : A_EAC3
Продолжительность : 48 м. 23 с.
Вид битрейта : Постоянный
Битрейт : 256 Кбит/сек
Каналы : 6 каналов
Channel layout : L R C LFE Ls Rs
Частота : 48,0 КГц
Частота кадров : 31,250 кадров/сек (1536 SPF)
Метод сжатия : С потерями
Размер потока : 88,6 Мбайт (7%)
Заголовок : Eng
Язык : English
Service kind : Complete Main
Default : Нет
Forced : Нет

Текст #1
Идентификатор : 6
Формат : UTF-8
Идентификатор кодека : S_TEXT/UTF8
Идентификатор кодека/Информация : UTF-8 Plain Text
Продолжительность : 47 м. 2 с.
Битрейт : 96 бит/сек
Count of elements : 605
Размер потока : 33,2 Кбайт (0%)
Заголовок : Rus
Язык : Russian
Default : Нет
Forced : Нет

Текст #2
Идентификатор : 7
Формат : UTF-8
Идентификатор кодека : S_TEXT/UTF8
Идентификатор кодека/Информация : UTF-8 Plain Text
Продолжительность : 48 м. 12 с.
Битрейт : 58 бит/сек
Count of elements : 651
Размер потока : 20,8 Кбайт (0%)
Заголовок : Eng
Язык : English
Default : Нет
Forced : Нет

Текст #3
Идентификатор : 8
Формат : UTF-8
Идентификатор кодека : S_TEXT/UTF8
Идентификатор кодека/Информация : UTF-8 Plain Text
Продолжительность : 48 м. 12 с.
Битрейт : 63 бит/сек
Count of elements : 717
Размер потока : 22,3 Кбайт (0%)
Заголовок : SDH
Язык : English
Default : Нет
Forced : Нет

Меню
00:10:15.016 : Chapter 01
00:14:50.012 : Chapter 02
00:23:43.004 : Chapter 03
00:31:54.001 : Chapter 04
00:40:55.012 : Chapter 05

Внимание! Раздача ведётся путём добавления новых серий; при каждом добавлении создаётся новый торрент.
Чтобы начать докачку новой серии, пользователям необходимо сделать следующее:
1. Остановить скачивание;
2. Удалить старый торрент у себя из клиента (старые серии удалять не надо);
3. Скачать новый торрент и запустить его у себя в клиенте вместо старого, при этом указать клиенту путь в старую папку куда и должно происходить скачивание новых серий. Ваш клиент при этом должен произвести хеширование (проверку) старой папки и будет докачивать только те серии, которых у вас ещё нет. Старые серии при этом не удаляются, а продолжают раздаваться! Eсли вы уже удалили старые серии, то предотвратить повторную закачку старых серий можно, отжав галочку в соответствующих местах при запуске нового торрента.

pb.wtf



Скачать Американские истории ужасов через торрент https://i5.imageban.ru/out/2021/07/21/9e46d45ad27111565946ebd682793509.png Скачать фильм Американские истории ужасов через торрент бесплантно в хорошем качестве Описание: В первом эпизоде девочка-подросток и ее отец переезжают в старый заброшенный дом, о котором ходят нехорошие слухи. Приступив к ... 9.7 10 3
Торрент: Зарегистрирован [2021-07-22 01:57] · скачан: 45 раз
Статус: √ проверено
Размер: 2.56 GB
Как cкачать? Как скачать Американские истории ужасов через торрент | UTorrent

28-11-2019 20:33  

Отключить всю рекламу на сайте

24-07-2021 15:32 Американские истории ужасов Скачать торрент  

спасибо!!!!!pb.wtf



    Дорогой пользователь! Огромная просьба, поблагодарите релизера, оцените раздачу и оставьте свои комментарий, если Вы скачали Американские истории ужасов через торрент бесплатно! Внесите свою лепту в развитие PiratBit!
    Комментировать посты могут только пользователи прошедшие не сложную регистрацию
    Показать сообщения:    

    Американские истории ужасов через торрент
    Скачать бесплатно Американские истории ужасов
    Американские истории ужасов скачать торрент
    Американские истории ужасов смотреть онлайн
    Cкачать фильм Американские истории ужасов бесплатно
    Американские истории ужасов скачать торрент в хорошем качестве
    Американские истории ужасов смотреть онлайн бесплатно в хорошем качестве


    Вы не можете начинать темы
    Вы не можете отвечать на сообщения
    Вы не можете редактировать свои сообщения
    Вы не можете удалять свои сообщения
    Вы не можете голосовать в опросах
    Вы не можете прикреплять файлы к сообщениям
    Вы можете скачивать файлы