Присоединяйтесь к нам в Telegram!, здесь всегда актуальный адрес сайта, оперативная поддержка и многое другое!!

>

5.9

iTunes

7.4

iTunes

9.4

1 сезон

1

7.4

2 сезон

7.2

iTunes

7.3

1 сезон

13

6.1

iTunes

8.3

GOG

30

ULTIMATE

pack

9.9

Лицензия

ВАЖНО

ИГРА 18+

pack

7.3

RePack

MK11

7.7

RePack

jed

7.8

RePack

fifa19

8.5

RePack

RDR2

RePack

NEED FOR SPEED™ PAYBACK

5 сезон

9 сезон

Бесстыжие 9 сезон

Все сериалы

все сериалы на PB.wtf

RePack

FAR CRY 5

Anonymous, доброе утро, мы катастрофически не успеваем собрать деньги на оплату серверов, помогите нам пожалуйста 5,10,15р., для нас важна любая помощь . В качестве благодарности мы отключим Вам всю рекламу на сайте (укажите свой ник в строку Ваше имя)!

×
  
Magnet ссылка

Ограбление по-джентльменски / The Misfits (Ренни Харлин) [2021, Боевик, триллер, приключения, WEB-DLRip-AVC] DUB [iTunes] pb.wtf

Ограбление по-джентльменски через торрент pb.wtf

Размер: 1.68 GB | Добавлен: 4 мес. 7 д. назад | Торрент скачан:70 раз
Смотреть онлайн Ограбление по-джентльменски | Скачать    Ребята, помогите собрать деньги на оплату серверов!!!

22-07-2021 11:56 Ограбление по-джентльменски Скачать торрент  

Ограбление по-джентльменски | The Misfits
Год выпуска: 2021
Страна: США
Студия: FilmGate Productions, Highland Film Group (HFG), K. JAM Media, RNG Entertainment, The Misfits Project
Жанр: Боевик, триллер, приключения
Продолжительность: 01:34:22
Перевод: Дублированный | iTunes
Субтитры: Английские (Full, SDH), форсированные (хардсаб)

Режиссер: Ренни Харлин

rating

В ролях: Пирс Броснан, Тим Рот, Ник Кэннон, Рами Джабер, Джейми Чон, Гермиона Корфилд, Пират Нитипаисалкул, Кайс Кандиль, Мартин Коррадо, Роберт Хенни

Описание: После дерзкого побега из тюрьмы самый известный вор в мире Ричард Пейс заключает сделку с «Командой изгоев», которые грабят богатых и отдают деньги бедным. Под началом бывалого вора-джентльмена новые Робин Гуды нацеливаются на крупнейшее хранилище золотых слитков в мире, владелец которого — Уорнер Шольц — отмывает деньги международных преступников, а по совместительству является давним врагом Пейса. Грабить они будут красиво, задорно и со вкусом — по-джентльменски.

Качество: WEB-DLRip-AVC
Формат: MKV

Видео: 1024x426 at 23.976 fps, x264@L4.1, ~1713 kbps, 0.164 bpp
Аудио: AC3, 48 kHz, 6 ch, ~384.00 kbps avg | Русский | iTunes
Аудио: AC3, 48 kHz, 6 ch, ~448.00 kbps avg | Английский |
скриншот  скриншот  скриншот  скриншот  скриншот  

x264 [info]: frame I:1667 Avg QP:15.57 size: 51616
x264 [info]: frame P:34601 Avg QP:17.39 size: 17692
x264 [info]: frame B:99504 Avg QP:19.79 size: 5172

General
Format : Matroska
Format version : Version 4
File size : 1.68 GiB
Duration : 1 h 34 min
Overall bit rate : 2 548 kb/s
Movie name : Ограбление по-джентльменски.(2021).IT.AMZN.WEB-DLRip-AVC.[-=DoMiNo=-]
Encoded date : UTC 2021-07-22 10:36:52
Writing application : mkvmerge v59.0.0 ('Shining Star') 64-bit
Writing library : libebml v1.4.2 + libmatroska v1.6.4
Cover : Yes
Attachments : Cover.jpg / Cover 2.jpg

Video
ID : 1
Format : AVC
Format/Info : Advanced Video Codec
Format profile : High@L4.1
Format settings : CABAC / 12 Ref Frames
Format settings, CABAC : Yes
Format settings, Reference : 12 frames
Codec ID : V_MPEG4/ISO/AVC
Duration : 1 h 34 min
Bit rate : 1 713 kb/s
Width : 1 024 pixels
Height : 426 pixels
Display aspect ratio : 2.40:1
Frame rate mode : Constant
Frame rate : 23.976 (24000/1001) FPS
Color space : YUV
Chroma subsampling : 4:2:0
Bit depth : 8 bits
Scan type : Progressive
Bits/(Pixel*Frame) : 0.164
Stream size : 1.13 GiB (67%)
Title : -=DoMiNo=-
Writing library : x264 core 164 r3065+55M 280faca t_mod_New [(8 & 10)-bit@all X86_64]
Encoding settings : cabac=1 / ref=12 / deblock=1:-3:-3 / analyse=0x3:0x133 / me=umh / subme=10 / psy=1 / fade_compensate=0.00 / psy_rd=1.03:0.05 / mixed_ref=1 / me_range=32 / chroma_me=1 / trellis=2 / 8x8dct=1 / cqm=0 / deadzone=21,11 / fast_pskip=0 / chroma_qp_offset=-3 / threads=24 / lookahead_threads=3 / sliced_threads=0 / nr=0 / decimate=1 / interlaced=0 / bluray_compat=0 / constrained_intra=0 / fgo=0 / bframes=12 / b_pyramid=2 / b_adapt=2 / b_bias=0 / direct=1 / weightb=1 / open_gop=0 / weightp=2 / keyint=240 / keyint_min=23 / scenecut=40 / intra_refresh=0 / rc_lookahead=60 / rc=crf / mbtree=0 / crf=18.0000 / qcomp=0.65 / qpmin=0:0:0 / qpmax=69:69:69 / qpstep=4 / vbv_maxrate=50000 / vbv_bufsize=62500 / crf_max=0.0 / nal_hrd=none / filler=0 / ip_ratio=1.40 / pb_ratio=1.30 / aq=3:0.80 / aq-sensitivity=10.00 / aq-factor=1.00:1.00:1.00 / aq2=0 / aq3=0
Language : English
Default : Yes
Forced : No
Color range : Limited
Color primaries : BT.709
Transfer characteristics : BT.709
Matrix coefficients : BT.709

Audio #1
ID : 2
Format : AC-3
Format/Info : Audio Coding 3
Commercial name : Dolby Digital
Codec ID : A_AC3
Duration : 1 h 34 min
Bit rate mode : Constant
Bit rate : 384 kb/s
Channel(s) : 6 channels
Channel layout : L R C LFE Ls Rs
Sampling rate : 48.0 kHz
Frame rate : 31.250 FPS (1536 SPF)
Compression mode : Lossy
Stream size : 259 MiB (15%)
Title : DUB | iTunes
Language : Russian
Service kind : Complete Main
Default : Yes
Forced : Yes

Audio #2
ID : 3
Format : AC-3
Format/Info : Audio Coding 3
Commercial name : Dolby Digital
Codec ID : A_AC3
Duration : 1 h 34 min
Bit rate mode : Constant
Bit rate : 448 kb/s
Channel(s) : 6 channels
Channel layout : L R C LFE Ls Rs
Sampling rate : 48.0 kHz
Frame rate : 31.250 FPS (1536 SPF)
Compression mode : Lossy
Stream size : 302 MiB (18%)
Language : English
Service kind : Complete Main
Default : No
Forced : No

Text #1
ID : 4
Format : UTF-8
Codec ID : S_TEXT/UTF8
Codec ID/Info : UTF-8 Plain Text
Duration : 1 h 26 min
Bit rate : 65 b/s
Count of elements : 1103
Stream size : 41.8 KiB (0%)
Language : English
Default : No
Forced : No

Text #2
ID : 5
Format : UTF-8
Codec ID : S_TEXT/UTF8
Codec ID/Info : UTF-8 Plain Text
Duration : 1 h 26 min
Bit rate : 71 b/s
Count of elements : 1254
Stream size : 45.5 KiB (0%)
Title : SDH
Language : English
Default : No
Forced : No

pb.wtf



Скачать Ограбление по-джентльменски через торрент https://i115.fastpic.ru/big/2021/0711/ae/0787d6226f726121b5d1b04e8f79e7ae.jpg Скачать, смотреть онлайн Ограбление по-джентльменски бесплантно в хорошем качестве Описание: После дерзкого побега из тюрьмы самый известный вор в мире Ричард Пейс заключает сделку с «Командой изгоев», которые грабят ... 10 10 3
Торрент: Зарегистрирован [2021-07-22 11:56] · скачан: 70 раз
Статус: √ проверено
Размер: 1.68 GB
Как cкачать? Как скачать Ограбление по-джентльменски через торрент | UTorrent

% Раздел Тема Автор DL S | L
Фильмы [HD 720p, 1080p] (Хороший звук DUB, MVO) [ 3.12 GB ] Ограбление по-джентльменски / The Misfits [2021 BDRip 720p] DUB [Марафон] bober100 Скачать
2 | 0
Фильмы 2021 [DVDrip, WEB-DLRip, HDrip] (DUB, MVO) [ 2.04 GB ] Ограбление по-джентльменски / The Misfits [2021 WEB-DLRip-AVC] DUB [Марафон] от MediaBit Lithuania Скачать
6 | 0
Фильмы 2021 [DVDrip, WEB-DLRip, HDrip] (DUB, MVO) [ 1.46 GB ] Ограбление по-джентльменски / The Misfits [2021 BDRip] - [ / Марафон] Twi7ter Скачать
16 | 2
Фильмы 2021 [DVDrip, WEB-DLRip, HDrip] (DUB, MVO) [ 746 MB ] Ограбление по-джентльменски / The Misfits [2021 BDRip] DUB [Марафон] bober100 Скачать
1 | 0
Фильмы 2021 [DVDrip, WEB-DLRip, HDrip] (DUB, MVO) [ 1.46 GB ] Ограбление по-джентльменски / The Misfits [2021 BDRip] DUB [Марафон] bober100 Скачать
2 | 0
Фильмы [HD 720p, 1080p] (Хороший звук DUB, MVO) [ 7.61 GB ] Ограбление по-джентльменски / The Misfits [2021 BDRip 1080p] DUB [Марафон] bober100 Скачать
4 | 0

28-11-2019 20:33  

Отключить всю рекламу на сайте

    Дорогой пользователь! Огромная просьба, поблагодарите релизера, оцените раздачу и оставьте свои комментарий, если Вы скачали Ограбление по-джентльменски через торрент бесплатно!
    Комментировать посты могут только пользователи прошедшие не сложную регистрацию
    Показать сообщения:    

    Ограбление по-джентльменски через торрент
    Скачать бесплатно Ограбление по-джентльменски
    Ограбление по-джентльменски скачать торрент
    Ограбление по-джентльменски смотреть онлайн
    Cкачать фильм Ограбление по-джентльменски бесплатно
    Ограбление по-джентльменски скачать торрент в хорошем качестве
    Ограбление по-джентльменски смотреть онлайн бесплатно в хорошем качестве


    Вы не можете начинать темы
    Вы не можете отвечать на сообщения
    Вы не можете редактировать свои сообщения
    Вы не можете удалять свои сообщения
    Вы не можете голосовать в опросах
    Вы не можете прикреплять файлы к сообщениям
    Вы можете скачивать файлы