Присоединяйтесь к нам в Telegram!, здесь всегда актуальный адрес сайта, оперативная поддержка и многое другое!!

>

5.9

iTunes

7.4

iTunes

9.4

1 сезон

1

7.4

2 сезон

7.2

iTunes

7.3

1 сезон

13

6.1

iTunes

8.3

GOG

30

ULTIMATE

pack

9.9

Лицензия

ВАЖНО

ИГРА 18+

pack

7.3

RePack

MK11

7.7

RePack

jed

7.8

RePack

fifa19

8.5

RePack

RDR2

RePack

NEED FOR SPEED™ PAYBACK

5 сезон

9 сезон

Бесстыжие 9 сезон

Все сериалы

все сериалы на PB.wtf

RePack

FAR CRY 5

Anonymous, добрый вечер, мы катастрофически не успеваем собрать деньги на оплату серверов, помогите нам пожалуйста 5,10,15р., для нас важна любая помощь . В качестве благодарности мы отключим Вам всю рекламу на сайте (укажите свой ник в строку Ваше имя)!

×
  
Magnet ссылка

Ограбление по-джентльменски / The Misfits (Ренни Харлин) [2021, Боевик, триллер, приключения, WEB-DLRip-AVC] DUB [Марафон] от MediaBit pb.wtf

Ограбление по-джентльменски через торрент pb.wtf

Раздают: 5 [ 0 KB/s ]
Размер: 2.04 GB | Добавлен: 4 мес. 8 д. назад | Торрент скачан:175 раз
Смотреть онлайн Ограбление по-джентльменски | Скачать    Ребята, помогите собрать деньги на оплату серверов!!!

22-07-2021 18:09 Ограбление по-джентльменски Скачать торрент  


Ограбление по-джентльменски / The Misfits
Информация о фильме:
Название: Ограбление по-джентльменски
Оригинальное название: The Misfits
Год выхода: 2021
Жанр: Боевик, триллер, приключения
Режиссер: Ренни Харлин
В ролях: Пирс Броснан, Джейми Чанг, Тим Рот, Гермиона Корфилд, Ник Кэннон, Гонсало Менендес, Дэвид Бэтчелор, Марк Чиннери

Описание: Команда современных авантюристов, известных как Изгои, занимается тем, что восстанавливает мировую справедливость. На этот раз Изгоям нужна помощь известного вора Ричарда Пейса, который должен помочь им украсть золото у крупного бизнесмена Шульца. Это золото используется для финансирования террористических групп по всему миру. Пейс соглашается, ведь у него тоже есть старые счеты с Шульцем, который когда-то посадил его в тюрьму. Теперь Изгои должны добраться из Лос-Анджелеса в Абу-Даби, используя свои мошеннические навыки и самые последние достижения технического прогресса.



Страна: США
Студия: FilmGate Productions, Highland Film Group (HFG), K. JAM Media, RNG Entertainment, The Misfits Project
Продолжительность: 01:34:22
Перевод: Дублированный - Марафон



Информация о файле:
Кодек: AVC
Формат: MKV
Качество: WEB-DLRip-AVC
Видео: MPEG-4 AVC, 1024x428, 23.976 fps, 2198 kbps
Аудио RU: AC3, 6 ch, 48 kHz, 448 kbps
Аудио EN: AC3, 6 ch, 48 kHz, 448 kbps
Субтитры: Английские

x264 info: frame I:1609 Avg QP:12.35 size: 79166
x264 info: frame P:35221 Avg QP:16.00 size: 23163
x264 info: frame B:98941 Avg QP:19.43 size: 6191
x264 info: consecutive B-frames: 3.7% 4.7% 12.3% 45.7% 12.3% 14.2% 2.0% 1.5% 0.4% 0.3% 0.3% 0.4% 0.5% 1.9%
General
Unique ID : 112537221399174217011225171731175398953 (0x54A9E16581109F7D81E2399547175E29)
Complete name : D:uTorrentРипы wolf1245The.Misfits.2021.DUB.Marafon.WEB-DLRip-AVC.[wolf1245.MediaBit].mkv
Format : Matroska
Format version : Version 4
File size : 2.04 GiB
Duration : 1 h 34 min
Overall bit rate : 3 085 kb/s
Movie name : The.Misfits.2021.DUB.Marafon.WEB-DLRip-AVC.[wolf1245.MediaBit]
Encoded date : UTC 2021-07-22 17:55:54
Writing application : mkvmerge v59.0.0 ('Shining Star') 64-bit
Writing library : libebml v1.4.2 + libmatroska v1.6.4

Video
ID : 1
Format : AVC
Format/Info : Advanced Video Codec
Format profile : High@L4.1
Format settings : CABAC / 15 Ref Frames
Format settings, CABAC : Yes
Format settings, Reference frames : 15 frames
Codec ID : V_MPEG4/ISO/AVC
Duration : 1 h 34 min
Bit rate : 2 198 kb/s
Width : 1 024 pixels
Height : 428 pixels
Display aspect ratio : 2.40:1
Frame rate mode : Constant
Frame rate : 23.976 (24000/1001) FPS
Color space : YUV
Chroma subsampling : 4:2:0
Bit depth : 8 bits
Scan type : Progressive
Bits/(Pixel*Frame) : 0.209
Stream size : 1.45 GiB (71%)
Title : .[wolf1245.MediaBit]
Writing library : x264 core 157 r2958 57baac4
Encoding settings : cabac=1 / ref=15 / deblock=1:-3:-3 / analyse=0x3:0x133 / me=umh / subme=11 / psy=1 / psy_rd=1.00:0.05 / mixed_ref=1 / me_range=48 / chroma_me=1 / trellis=2 / 8x8dct=1 / cqm=0 / deadzone=21,11 / fast_pskip=1 / chroma_qp_offset=-3 / threads=10 / lookahead_threads=2 / sliced_threads=0 / nr=0 / decimate=1 / interlaced=0 / bluray_compat=0 / constrained_intra=0 / bframes=13 / b_pyramid=2 / b_adapt=2 / b_bias=0 / direct=3 / weightb=1 / open_gop=0 / weightp=2 / keyint=240 / keyint_min=24 / scenecut=40 / intra_refresh=0 / rc_lookahead=60 / rc=2pass / mbtree=1 / bitrate=2198 / ratetol=1.0 / qcomp=0.60 / qpmin=0 / qpmax=69 / qpstep=4 / cplxblur=20.0 / qblur=0.5 / vbv_maxrate=50000 / vbv_bufsize=62500 / nal_hrd=none / filler=0 / ip_ratio=1.40 / aq=3:0.80
Language : English
Default : Yes
Forced : No
Color range : Limited
Color primaries : BT.709
Transfer characteristics : BT.709
Matrix coefficients : BT.709

Audio #1
ID : 2
Format : AC-3
Format/Info : Audio Coding 3
Commercial name : Dolby Digital
Codec ID : A_AC3
Duration : 1 h 34 min
Bit rate mode : Constant
Bit rate : 448 kb/s
Channel(s) : 6 channels
Channel layout : L R C LFE Ls Rs
Sampling rate : 48.0 kHz
Frame rate : 31.250 FPS (1536 SPF)
Compression mode : Lossy
Stream size : 304 MiB (15%)
Title : Dub [Марафон]
Language : Russian
Service kind : Complete Main
Default : Yes
Forced : No

Audio #2
ID : 3
Format : AC-3
Format/Info : Audio Coding 3
Commercial name : Dolby Digital
Codec ID : A_AC3
Duration : 1 h 34 min
Bit rate mode : Constant
Bit rate : 448 kb/s
Channel(s) : 6 channels
Channel layout : L R C LFE Ls Rs
Sampling rate : 48.0 kHz
Frame rate : 31.250 FPS (1536 SPF)
Compression mode : Lossy
Stream size : 302 MiB (14%)
Title : Original
Language : English
Service kind : Complete Main
Default : No
Forced : No

Text #1
ID : 4
Format : UTF-8
Codec ID : S_TEXT/UTF8
Codec ID/Info : UTF-8 Plain Text
Duration : 1 h 26 min
Bit rate : 65 b/s
Count of elements : 1103
Stream size : 41.8 KiB (0%)
Title : Full
Language : English
Default : No
Forced : No

Text #2
ID : 5
Format : UTF-8
Codec ID : S_TEXT/UTF8
Codec ID/Info : UTF-8 Plain Text
Duration : 1 h 26 min
Bit rate : 71 b/s
Count of elements : 1254
Stream size : 45.5 KiB (0%)
Title : SDH
Language : English
Default : No
Forced : No
Релиз от: &

Автор релиза:
pb.wtf



Скачать Ограбление по-джентльменски через торрент https://i115.fastpic.ru/big/2021/0722/8a/f300ee0bf98bcc10349115aa4facc48a.jpg Скачать, смотреть онлайн Ограбление по-джентльменски бесплантно в хорошем качестве Описание: Команда современных авантюристов, известных как Изгои, занимается тем, что восстанавливает мировую справедливость. На этот раз ... 10 10 3
Info! Золотая раздача, скачанное не засчитывается.
Торрент: Зарегистрирован [2021-07-22 18:09] · скачан: 175 раз
Статус: √ проверено
Размер: 2.04 GB
Как cкачать? Как скачать Ограбление по-джентльменски через торрент | UTorrent

28-11-2019 20:33  

Отключить всю рекламу на сайте

26-07-2021 15:16 Ограбление по-джентльменски Скачать торрент  

шлакpb.wtf



    Дорогой пользователь! Огромная просьба, поблагодарите релизера, оцените раздачу и оставьте свои комментарий, если Вы скачали Ограбление по-джентльменски через торрент бесплатно!
    Комментировать посты могут только пользователи прошедшие не сложную регистрацию
    Показать сообщения:    

    Ограбление по-джентльменски через торрент
    Скачать бесплатно Ограбление по-джентльменски
    Ограбление по-джентльменски скачать торрент
    Ограбление по-джентльменски смотреть онлайн
    Cкачать фильм Ограбление по-джентльменски бесплатно
    Ограбление по-джентльменски скачать торрент в хорошем качестве
    Ограбление по-джентльменски смотреть онлайн бесплатно в хорошем качестве


    Вы не можете начинать темы
    Вы не можете отвечать на сообщения
    Вы не можете редактировать свои сообщения
    Вы не можете удалять свои сообщения
    Вы не можете голосовать в опросах
    Вы не можете прикреплять файлы к сообщениям
    Вы можете скачивать файлы